img image001 image001 image001 image001 image001 image001 image001 image001 image001 image001 image001 image001 image001 image001 image001

Planets Sun Sun Sun
Статистика раздачи
Автор: Снежана | Размер: 1.36 ГБ | Добавлен: 24 июл 2013
Раздают: 21    Качают: 5
Скачать торрент
Скачать торрент
Описание торрента

СообщениеДобавлено: 24 июл 2013 

#77

Ижорский батальон /1972/ AVC







Информация о фильме:

Название: Ижорский батальон
Год выхода: 1972
Жанр: Военный, Драма



Режиссер: Геннадий Казанский
Сценарист: Геннадий Казанский
Оператор: Владимир Бурыкин
Композитор: Надежда Симонян



В фильме снимались:
Виктор Жуков — Коля Матвеев
Ирина Юревич — Лена Снегирёва
Сергей Приселков — Чайка
Борис Чирков — дядя Ваня
Сергей Плотников — дядя Паша
Василий Корзун — Виктор Андреевич Андреев, начальник штаба
Вадим Яковлев — Сергей Петрович, секретарь парткома
Леонид Неведомский — командир батальона
Глеб Селянин — комиссар батальона
Георгий Куликов — Геннадий Викентьевич, учитель
Инна Кондратьева — Анна Алексеевна, мать Лены
Михаил Храбров — Фёдор Иванович, отец Коли
Вера Кузнецова — тётя Даша
Владимир Марьев — Степан Васильевич Потапов
Владимир Лисецкий — Никита Потапов
Владимир Летенков — Алексей Потапов
и другие...



Описание: Фильм о судьбах воинов Ижорского батальона. Сформированный из работников завода, батальон принял участие в решающих сражениях против регулярных частей гитлеровской армии и закончил свой героический путь на побережье Балтийского моря.

Съёмки проходили в Колпино и в цехах Ижорского завода. Тогда во многих местах города и завода были установлены декорации военной поры. По воспоминаниям актёра В. Корзуна, «съёмки проходили на заводе при участии тех, кто когда-то в войну молодыми работал и защищал родной завод, Ленинград».



Страна:
Выпущено: Ленфильм
Продолжительность: 01:28:30
Субтитры: Нет









[size=1]Format : MPEG-4
Format profile : Base Media
Codec ID : isom
File size : 1.36 GiB
Duration : 1h 28mn
Overall bit rate : 2 192 Kbps
Encoded date : UTC 2011-02-10 10:21:03
Tagged date : UTC 2011-02-10 10:21:03

Video
ID : 1
Format : AVC
Format/Info : Advanced Video Codec
Format profile : High@L3.0
Format settings, CABAC : Yes
Format settings, ReFrames : 4 frames
Codec ID : avc1
Codec ID/Info : Advanced Video Coding
Duration : 1h 28mn
Bit rate mode : Variable
Bit rate : 2 002 Kbps
Maximum bit rate : 5 670 Kbps
Width : 784 pixels
Height : 424 pixels
Display aspect ratio : 16:9
Frame rate mode : Constant
Frame rate : 25.000 fps
Color space : YUV
Chroma subsampling : 4:2:0
Bit depth : 8 bits
Scan type : Progressive
Bits/(Pixel*Frame) : 0.241
Stream size : 1.24 GiB (91%)
Title : Imported with GPAC 0.4.6-DEV (build 1)
Writing library : x264 core 92 r1510 33d382a
Encoding settings : cabac=1 / ref=1 / deblock=1:0:0 / analyse=0x3:0x3 / me=dia / subme=1 / psy=1 / psy_rd=0.00:0.00 / mixed_ref=0 / me_range=16 / chroma_me=1 / trellis=0 / 8x8dct=1 / cqm=0 / deadzone=21,11 / fast_pskip=1 / chroma_qp_offset=0 / threads=1 / sliced_threads=0 / nr=0 / decimate=1 / interlaced=0 / constrained_intra=0 / bframes=3 / b_pyramid=2 / b_adapt=1 / b_bias=0 / direct=1 / wpredb=1 / wpredp=0 / keyint=250 / keyint_min=25 / scenecut=40 / intra_refresh=0 / rc=abr / mbtree=0 / bitrate=2002 / ratetol=1.0 / qcomp=0.60 / qpmin=10 / qpmax=51 / qpstep=4 / ip_ratio=1.40 / pb_ratio=1.30 / aq=1:1.00
Encoded date : UTC 2011-02-10 10:21:03
Tagged date : UTC 2011-02-10 10:23:32

Audio
ID : 2
Format : MPEG Audio
Format version : Version 1
Format profile : Layer 3
Codec ID : 6B
Duration : 1h 28mn
Bit rate mode : Variable
Bit rate : 192 Kbps
Maximum bit rate : 230 Kbps
Channel(s) : 2 channels
Sampling rate : 48.0 KHz
Compression mode : Lossy
Stream size : 117 MiB (8%)
Title : Imported with GPAC 0.4.6-DEV (build 1)
Writing library : LAME3.98r
Encoding settings : -m s -V 4 -q 2 -lowpass 18.6 --abr 192
Encoded date : UTC 2011-02-10 10:23:20
Tagged date : UTC 2011-02-10 10:23:32



Качество: DVDRip-AVC /Исходник DVD5/
Формат: MKV
Видео кодек: x264
Аудио кодек: MP3
Видео: MPEG4 Video (H264) 784x424, 25 fps, ~2002 kbps avg, 0.24 bit/pixel
Аудио: 48 kHz, MPEG Layer 3, 2 ch, ~192.00 kbps avg
Автор рипа:













   Похожие торренты   Торрент   Размер 
В этой теме нет новых непрочитанных сообщений. Батальон ниндзя / Батальон ниндзя / Ninja The Battalion (1990) VHSRip

200 | 6

1.37 ГБ

В этой теме нет новых непрочитанных сообщений. Морской батальон (1944) DVDRip-AVC

36 | 8

1.11 ГБ

В этой теме нет новых непрочитанных сообщений. Морской батальон (1944) DVDRip от New-Team

4 | 8

1.09 ГБ

В этой теме нет новых непрочитанных сообщений. Морской батальон (1944) DVDRip-AVC от New-Team

50 | 11

1.09 ГБ

В этой теме нет новых непрочитанных сообщений. Морской батальон (1944) DVDRip от New-Team

18 | 4

744.8 МБ

В этой теме нет новых непрочитанных сообщений. Забытая рота / Потерянный батальон / The Lost Battalion (2001) DVDRip

6 | 6

742.61 МБ

В этой теме нет новых непрочитанных сообщений. Его батальон (1989) TVRip

13 | 4

1.05 ГБ




Вы не можете начинать темы
Вы не можете отвечать на сообщения
Вы не можете редактировать свои сообщения
Вы не можете удалять свои сообщения
Вы не можете добавлять вложения

Перейти:  
Для Мосгорсуда, Роскомнадзора и рекламодателей: mosgorsud-torrent[собачка]yandex.ru
 Вход
ppkBB3cker v.2 © 2008-2014 @ PPK
[ Time : 0.047s | 15 Queries | GZIP : Off ]

cron