img image001 image001 image001 image001 image001 image001 image001 image001 image001 image001 image001 image001 image001 image001 image001

Planets Sun Sun Sun
Статистика раздачи
Автор: Снежана | Размер: 21.13 ГБ | Добавлен: 24 июл 2013
Раздают: 12    Качают: 10
Скачать торрент
Скачать торрент
Описание торрента

СообщениеДобавлено: 24 июл 2013 

#77

Информация о фильме
Название: Иван Васильевич меняет профессию
Год выхода: 1973
Жанр: Фантастика, комедия, приключения, семейный
Режиссер: Леонид Гайдай
В ролях: Александр Демьяненко, Юрий Яковлев, Леонид Куравлёв, Наталья Крачковская, Савелий Крамаров, Наталья Селезнёва, Владимир Этуш, Михаил Пуговкин, Сергей Филиппов, Наталья Кустинская

О фильме: Инженер-изобретатель Тимофеев сконструировал машину времени, которая соединила его квартиру с далеким шестнадцатым веком - точнее, с палатами государя Ивана Грозного. Туда-то и попадают тезка царя пенсионер-общественник Иван Васильевич Бунша и квартирный вор Жорж Милославский.

На их место в двадцатом веке «переселяется» великий государь. Поломка машины приводит ко множеству неожиданных и забавных событий...



"Полная реставрация изображения и звука. Исходные киноматериалы подготовлены Госфильмофондом России. Покадровая цифровая реставрация изображения, ремастеринг звука и авторинг проведены объединением «Крупный план»."

Сравнение скриншотов BD vs DVD9-КП

• Царь Иоанн Васильевич Грозный в современной Москве слушает на магнитофоне песню про зайцев «А нам всё равно» из предыдущего фильма Гайдая «Бриллиантовая рука».
• В сцене допроса милиционерами Иван Васильевич на вопрос о годе рождения отвечает: «Тысяча пятьсот тридцать третий от Рождества Христова.», хотя Иван Грозный родился 25 августа 1530 года, а летоисчисление «от Рождества Христова» было введено Пётром I только в 1700 году. До этого на Руси вели летоисчисление «от сотворения мира». Таким образом, ответ Ивана Васильевича должен был звучать как «Лето семь тысяч тридцать восьмое от сотворения мира».
• Шведский посол говорит не на шведском, а на немецком языке.
• То, что посол говорит на немецком языке, соответствует тексту пьесы Булгакова.
• На вопрос Бунши царица отвечает «Марфа Васильевна я». Это может быть только Марфа Васильевна Собакина, пробывшая женой Ивана IV Грозного всего 15 дней. Таким образом Жорж Милославский и Иван Васильевич Бунша находились в древней Москве в один из дней между 28-м октября и 12-м ноября 1571 года. 13 ноября Марфа Собакина умерла.
• Кстати, крымский хан действительно шалил на Изюмском шляхе в 1571 году. Да так шалил, что сжег Москву в мае 1571 года. В следующем году крымский хан был разбит в Битве при Молодях.
• Сцену звонка Жоржа «женским голосом» к Шпаку озвучивает Наталья Кустинская; песню «Разговор о счастье» поёт Валерий Золотухин.
• Фильм был переозвучен Гайдаем из-за нападок цензуры в нескольких эпизодах. Первый: во время царского банкета Бунша спрашивает Милославского: «А кто платить будет?» Тот отвечает (цензура): «Ну, во всяком случае не мы», в оригинале по замыслу Гайдая, «Народ, народ, батюшка». Второй: сцена допроса Ивана Грозного в милиции: «Место жительства», царь отвечает: «В палатах». По замыслу Гайдая: «Москва — Кремль».
• Сцены погони за «пришельцами из будущего» снимались в Ростове Великом Ярославской области.
• Царица Марфа Васильевна в эпизоде трапезы все время смотрит в пол. Гримерам не удалось полностью заретушировать синяк, полученный ею накануне от мужа.
• Скипетр и держава, которые держит в руках Бунша (и которые изображены на иконе), как символ царской власти появились на сто лет позднее происходящих событий, в XVII веке.
• В лифте («Замуровали, демоны!») царь крестится тремя перстами. До 1653 года православные крестились двумя перстами.
• Занимает по посещаемости 17-е место среди отечественных фильмов за всю историю советского кинопроката.
• Бунша, переодетый в царя, произносит, обращаясь к шведскому послу «Гитлер капут», но по губам читается «Мир, дружба».
• Милиция приезжает расследовать квартирную кражу на автомобиле ГАИ.
• Иваном Васильевичем могли бы стать — Юрий Никулин, Георгий Вицин, Евгений Лебедев.
• Милославским могли бы стать Андрей Миронов, Георгий Юматов, Сергей Никоненко, Георгий Бурков.
• На песню «Звенит январская вьюга» пробовалась София Ротару, но её исполнение из-за довольно низкого голоса не подошло для комедийного жанра фильма.
• Зина (жена Шурика), заботясь об Иоанне Грозном в квартире произносит «Мало ли что могут подумать!», но по губам читается «Вас здесь могут увидеть!».
• В один из моментов фильма, зрителю может показаться что был допущен брак озвучивания: Когда Бунша спрашивает Милославского, как он попал в квартиру Шпака, тот отвечает «Да ну вас к чёрту, что за пошлые вопросы!», при этом рот у Милославского закрыт. На самом деле, эту фразу говорит не Милославский, а Шурик, находящейся в тот момент за кадром (голоса Куравлёва и Демьяненко, действительно похожи).
• В зарубежном прокате фильм шел под названием «Ivan the Terrible: Back to the Future» - «Иван Грозный: Назад в будущее».


Выпущено: "Мосфильм" / СССР
Продолжительность: 01:31:38
Перевод: Не требуется
Субтитры: Отсутствуют

Disc Title: IOAN_VASILIEVICH
Disc Size: 22 686 599 422 bytes
Protection: AACS
BD-Java: No
BDInfo: 0.5.6

Notes:

BDINFO HOME:
Cinema Squid
http://www.cinemasquid.com/blu-ray/tools/bdinfo

INCLUDES FORUMS REPORT FOR:
AVS Forum Blu-ray Audio and Video Specifications Thread
http://www.avsforum.com/avs-vb/showthread.php?t=1155731

********************
PLAYLIST: 00002.MPLS
********************
Код:
Total Video
Title Codec Length Movie Size Disc Size Bitrate Bitrate Main Audio Track Secondary Audio Track
----- ------ ------- -------------- -------------- ------- ------- ------------------ ---------------------
00002.MPLS AVC 1:31:38 22 312 187 904 22 686 599 422 32,46 26,05 DTS-HD Master 5.1 4067Kbps (48kHz/24-bit) DD AC3 5.1 448Kbps
Код:
DISC INFO:

Disc Title: IOAN_VASILIEVICH
Disc Size: 22 686 599 422 bytes
Protection: AACS
BD-Java: No
BDInfo: 0.5.6

PLAYLIST REPORT:

Name: 00002.MPLS
Length: 1:31:38 (h:m:s)
Size: 22 312 187 904 bytes
Total Bitrate: 32,46 Mbps

VIDEO:

Codec Bitrate Deion
----- ------- -----------
MPEG-4 AVC Video 26053 kbps 1080p / 23,976 fps / 16:9 / High Profile 4.1

AUDIO:

Codec Language Bitrate Deion
----- -------- ------- -----------
DTS-HD Master Audio Russian 4067 kbps 5.1 / 48 kHz / 4067 kbps / 24-bit (DTS Core: 5.1 / 48 kHz / 1509 kbps / 24-bit)
Dolby Digital Audio Russian 448 kbps 5.1 / 48 kHz / 448 kbps / DN -4dB
Dolby Digital Audio Russian 224 kbps 1.0 / 48 kHz / 224 kbps / DN -4dB

FILES:

Name Time In Length Size Total Bitrate
---- ------- ------ ---- -------------
00006.M2TS 0:00:00.000 1:31:38.618 22 312 187 904 32 462

CHAPTERS:

Number Time In Length Avg Video Rate Max 1-Sec Rate Max 1-Sec Time Max 5-Sec Rate Max 5-Sec Time Max 10Sec Rate Max 10Sec Time Avg Frame Size Max Frame Size Max Frame Time
------ ------- ------ -------------- -------------- -------------- -------------- -------------- -------------- -------------- -------------- -------------- --------------
1 0:00:00.000 0:08:01.689 24 943 kbps 43 775 kbps 00:02:50.295 37 877 kbps 00:02:47.750 35 925 kbps 00:02:45.039 130 032 bytes 398 131 bytes 00:02:34.571
2 0:08:01.689 0:04:04.994 25 568 kbps 30 036 kbps 00:11:51.127 29 245 kbps 00:11:59.093 28 980 kbps 00:11:54.213 133 301 bytes 291 806 bytes 00:08:15.578
3 0:12:06.684 0:04:58.881 25 157 kbps 31 008 kbps 00:13:25.262 29 244 kbps 00:13:23.302 28 117 kbps 00:13:22.968 131 159 bytes 273 701 bytes 00:16:43.377
4 0:17:05.566 0:05:00.133 24 995 kbps 28 893 kbps 00:21:32.499 26 611 kbps 00:18:33.487 25 877 kbps 00:21:37.296 130 314 bytes 245 508 bytes 00:19:12.067
5 0:22:05.699 0:05:35.960 24 990 kbps 29 815 kbps 00:27:31.274 26 176 kbps 00:27:29.647 25 625 kbps 00:26:55.113 130 288 bytes 279 370 bytes 00:22:47.199
6 0:27:41.659 0:03:54.150 25 185 kbps 30 941 kbps 00:31:19.419 28 740 kbps 00:31:18.084 28 405 kbps 00:31:18.459 131 301 bytes 332 743 bytes 00:31:35.810
7 0:31:35.810 0:05:36.502 25 531 kbps 32 975 kbps 00:35:14.529 30 883 kbps 00:35:14.362 30 209 kbps 00:35:08.898 133 109 bytes 323 797 bytes 00:33:11.155
8 0:37:12.313 0:09:23.813 25 165 kbps 34 190 kbps 00:43:04.164 29 129 kbps 00:41:58.933 28 929 kbps 00:43:04.123 131 201 bytes 320 595 bytes 00:39:26.739
9 0:46:36.126 0:03:06.936 25 943 kbps 35 320 kbps 00:46:57.231 32 252 kbps 00:46:55.646 31 246 kbps 00:46:55.646 135 254 bytes 309 911 bytes 00:47:18.043
10 0:49:43.063 0:09:35.574 26 800 kbps 34 580 kbps 00:54:47.993 33 519 kbps 00:54:43.989 33 140 kbps 00:54:41.945 139 721 bytes 296 017 bytes 00:54:51.913
11 0:59:18.638 0:06:58.459 30 379 kbps 36 829 kbps 01:05:19.624 34 525 kbps 01:05:16.787 32 977 kbps 01:05:14.535 158 385 bytes 326 886 bytes 01:01:56.879
12 1:06:17.098 0:03:31.127 26 398 kbps 34 661 kbps 01:06:23.479 32 333 kbps 01:06:43.749 31 784 kbps 01:06:42.748 137 626 bytes 322 095 bytes 01:07:02.226
13 1:09:48.225 0:08:44.398 25 754 kbps 34 039 kbps 01:13:04.254 32 983 kbps 01:12:58.040 32 354 kbps 01:12:55.746 134 269 bytes 368 420 bytes 01:17:39.196
14 1:18:32.624 0:05:07.390 26 113 kbps 35 630 kbps 01:21:51.197 32 061 kbps 01:21:59.289 31 543 kbps 01:21:54.326 136 139 bytes 303 554 bytes 01:20:39.918
15 1:23:40.015 0:04:42.657 26 375 kbps 32 635 kbps 01:27:40.088 30 051 kbps 01:27:36.084 29 714 kbps 01:27:31.079 137 510 bytes 319 094 bytes 01:27:03.760
16 1:28:22.672 0:03:15.945 27 221 kbps 31 536 kbps 01:31:27.899 30 366 kbps 01:31:24.854 29 823 kbps 01:31:19.098 141 946 bytes 278 709 bytes 01:31:14.802

STREAM DIAGNOSTICS:

File PID Type Codec Language Seconds Bitrate Bytes Packets
---- --- ---- ----- -------- -------------- -------------- ------------- -----
00006.M2TS 4113 (0x1011) 0x1B AVC 5498,451 26 054 17 906 832 396 97 397 057
00006.M2TS 4352 (0x1100) 0x86 DTS-HD MA rus (Russian) 5498,451 4 068 2 795 664 700 16 050 274
00006.M2TS 4353 (0x1101) 0x81 AC3 rus (Russian) 5498,451 448 307 951 616 1 718 480
00006.M2TS 4354 (0x1102) 0x81 AC3 rus (Russian) 5498,451 224 153 975 808 859 240
QUICK SUMMARY:

Disc Title: IOAN_VASILIEVICH
Disc Size: 22 686 599 422 bytes
Protection: AACS
BD-Java: No
Playlist: 00002.MPLS
Size: 22 312 187 904 bytes
Length: 1:31:38
Total Bitrate: 32,46 Mbps
Video: MPEG-4 AVC Video / 26053 kbps / 1080p / 23,976 fps / 16:9 / High Profile 4.1
Audio: Russian / DTS-HD Master Audio / 5.1 / 48 kHz / 4067 kbps / 24-bit (DTS Core: 5.1 / 48 kHz / 1509 kbps / 24-bit)
Audio: Russian / Dolby Digital Audio / 5.1 / 48 kHz / 448 kbps / DN -4dB
Audio: Russian / Dolby Digital Audio / 1.0 / 48 kHz / 224 kbps / DN -4dB

********************
PLAYLIST: 00000.MPLS
********************
Код:
Total Video
Title Codec Length Movie Size Disc Size Bitrate Bitrate Main Audio Track Secondary Audio Track
----- ------ ------- -------------- -------------- ------- ------- ------------------ ---------------------
00000.MPLS AVC 0:00:51 113 190 912 22 686 599 422 17,59 15,87 LPCM 2.0 2304Kbps (48kHz/24-bit)
Код:
DISC INFO:

Disc Title: IOAN_VASILIEVICH
Disc Size: 22 686 599 422 bytes
Protection: AACS
BD-Java: No
BDInfo: 0.5.6

PLAYLIST REPORT:

Name: 00000.MPLS
Length: 0:00:51 (h:m:s)
Size: 113 190 912 bytes
Total Bitrate: 17,59 Mbps

VIDEO:

Codec Bitrate Deion
----- ------- -----------
MPEG-4 AVC Video 15874 kbps 1080p / 23,976 fps / 16:9 / High Profile 4.1

AUDIO:

Codec Language Bitrate Deion
----- -------- ------- -----------
LPCM Audio Russian 2304 kbps 2.0 / 48 kHz / 2304 kbps / 24-bit

FILES:

Name Time In Length Size Total Bitrate
---- ------- ------ ---- -------------
00000.M2TS 0:00:00.000 0:00:20.603 41 834 496 16 243
00001.M2TS 0:00:20.603 0:00:20.854 64 905 216 24 899
00002.M2TS 0:00:41.458 0:00:10.009 6 451 200 5 156

CHAPTERS:

Number Time In Length Avg Video Rate Max 1-Sec Rate Max 1-Sec Time Max 5-Sec Rate Max 5-Sec Time Max 10Sec Rate Max 10Sec Time Avg Frame Size Max Frame Size Max Frame Time
------ ------- ------ -------------- -------------- -------------- -------------- -------------- -------------- -------------- -------------- -------------- --------------
1 0:00:00.000 0:00:51.468 15 874 kbps 46 288 kbps 00:00:31.030 40 483 kbps 00:00:28.194 32 693 kbps 00:00:25.608 82 761 bytes 545 123 bytes 00:00:02.252

STREAM DIAGNOSTICS:

File PID Type Codec Language Seconds Bitrate Bytes Packets
---- --- ---- ----- -------- -------------- -------------- ------------- -----
00000.M2TS 4113 (0x1011) 0x1B AVC 20,521 15 558 39 907 555 217 186
00001.M2TS 4113 (0x1011) 0x1B AVC 20,729 21 664 56 133 865 305 377
00001.M2TS 4352 (0x1100) 0x80 LPCM rus (Russian) 20,729 2 226 5 767 336 31 952
00002.M2TS 4113 (0x1011) 0x1B AVC 9,885 4 926 6 085 999 33 237
QUICK SUMMARY:

Disc Title: IOAN_VASILIEVICH
Disc Size: 22 686 599 422 bytes
Protection: AACS
BD-Java: No
Playlist: 00000.MPLS
Size: 113 190 912 bytes
Length: 0:00:51
Total Bitrate: 17,59 Mbps
Video: MPEG-4 AVC Video / 15874 kbps / 1080p / 23,976 fps / 16:9 / High Profile 4.1
Audio: Russian / LPCM Audio / 2.0 / 48 kHz / 2304 kbps / 24-bit


Файл
Качество: Blu-Ray
Формат: BDMV
Видео кодек: AVC
Аудио кодек: DTS, AC3
Видео: MPEG-4 AVC Video / 26053 kbps / 1920x1080p / 23,976 fps / 16:9 / High Profile 4.1
Аудио #1: Russian / DTS-HD Master Audio / 5.1 / 48 kHz / 4067 kbps / 24-bit
Аудио #2: Russian / AC3 / Dolby Digital Audio / 5.1 / 48 kHz / 448 kbps
Аудио #3: Russian / AC3 / Dolby Digital Audio / 1.0 / 48 kHz / 224 kbps





Есть, анимированное, озвученное.





Релиз группы:



   Похожие торренты   Торрент   Размер 
В этой теме нет новых непрочитанных сообщений. Иван Васильевич меняет профессию (1973) BDRip-AVC

47 | 14

2.19 ГБ

В этой теме нет новых непрочитанных сообщений. Иван Васильевич меняет профессию (1973) DVDRip

13 | 9

742.23 МБ

В этой теме нет новых непрочитанных сообщений. Иван Васильевич меняет профессию (1973) DVD5

20 | 4

2.96 ГБ

В этой теме нет новых непрочитанных сообщений. Иван Васильевич меняет профессию (1973) BDRip-AVC

259 | 21

744.31 МБ

В этой теме нет новых непрочитанных сообщений. Иван Васильевич меняет профессию (1973) DVD9

62 | 15

5.47 ГБ

В этой теме нет новых непрочитанных сообщений. Иван Васильевич меняет профессию (1973) BDRip-AVC

28 | 2

1.45 ГБ

В этой теме нет новых непрочитанных сообщений. Иван Васильевич меняет профессию (1973) BDRip

882 | 58

1.45 ГБ




Вы не можете начинать темы
Вы не можете отвечать на сообщения
Вы не можете редактировать свои сообщения
Вы не можете удалять свои сообщения
Вы не можете добавлять вложения

Перейти:  
Для Мосгорсуда, Роскомнадзора и рекламодателей: mosgorsud-torrent[собачка]yandex.ru
 Вход
ppkBB3cker v.2 © 2008-2014 @ PPK
[ Time : 0.034s | 16 Queries | GZIP : Off ]

cron