img image001 image001 image001 image001 image001 image001 image001 image001 image001 image001 image001 image001 image001 image001 image001

Planets Sun Sun Sun
Статистика раздачи
Автор: Снежана | Размер: 1.92 ГБ | Добавлен: 24 июл 2013
Раздают: 227    Качают: 7
Скачать торрент
Скачать торрент
Описание торрента

СообщениеДобавлено: 24 июл 2013 

#77

Оптимистическая трагедия /1963/ TVRip





"Ну, кто ещё хочет комиссарского тела?"



Информация о фильме:

Название: Оптимистическая трагедия
Год выхода: 1963
Жанр: Драма, Военный, История



Режиссер: Самсон Самсонов
Сценаристы: Самсон Самсонов, София Вишневецкая, Всеволод Вишневский /пьеса/
Оператор: Владимир Монахов
Композитор: Василий Дехтерев



В фильме снимались:
Маргарита Володина — Комиссар
Борис Андреев — Вожак
Вячеслав Тихонов — Алексей
Всеволод Санаев — Сиплый
Орво Бьернинен — Вайнонен
Всеволод Сафонов — Беринг
Иван Жеваго — Боцман
Даниил Нетребин — Рябой
Григорий Михайлов — Старый матрос
Пётр Соболевский — Судовой врач
Эраст Гарин — Вожак пополнения анархистов
Олег Стриженов — Первый офицер
Глеб Стриженов — Второй офицер
Алексей Глазырин — Ведущий
Валентин Белохвостик — Ведущий
И. Ваньков — Татуированный матрос
Вероника Недоброво-Бужинская — Женщина в чёрном
Виктор Шульгин — Высокий матрос
Манефа Соболевская — провожающая
и другие...



Описание: Фильм, поставленный по пьесе Всеволода Вишневского, рассказывает о драматических событиях на одном из кораблей революционного флота в 1917 году.

* Лучший фильм года. Маргарита Володина — лучшая актриса года по опросу журнала «Советский экран».

* Лидер проката (1963, 1 место) — 46 млн зрителей.

* Занимает по посещаемости 50-е место среди отечественных фильмов за всю историю советского кинопроката.



Страна:
Выпущено: Мосфильм
Продолжительность: 01:53:38
Перевод: Не требуется
Субтитры: Нет









Format : AVI
Format/Info : Audio Video Interleave
File size : 1.92 GiB
Duration : 1h 53mn
Overall bit rate : 2 413 Kbps
Writing application : VirtualDubMod 1.5.10.2 (build 2542/release)

Video
ID : 0
Format : MPEG-4 Visual
Format settings, BVOP : 1
Format settings, QPel : No
Format settings, GMC : No warppoints
Format settings, Matrix : Default (H.263)
Muxing mode : Packed bitstream
Codec ID : DX50
Codec ID/Hint : DivX 5
Duration : 1h 53mn
Bit rate : 2 308 Kbps
Width : 696 pixels
Height : 360 pixels
Display aspect ratio : 1.933
Frame rate : 25.000 fps
Color space : YUV
Chroma subsampling : 4:2:0
Bit depth : 8 bits
Scan type : Progressive
Compression mode : Lossy
Bits/(Pixel*Frame) : 0.368
Stream size : 1.83 GiB (96%)
Writing library : DivX 5.2.1 Beta (UTC 2004-09-08)

Audio
ID : 1
Format : MPEG Audio
Format version : Version 1
Format profile : Layer 3
Codec ID : 55
Codec ID/Hint : MP3
Duration : 1h 53mn
Bit rate mode : Constant
Bit rate : 96.0 Kbps
Channel(s) : 1 channel
Sampling rate : 44.1 KHz
Compression mode : Lossy
Stream size : 78.0 MiB (4%)
Alignment : Split accross interleaves
Interleave, duration : 40 ms (1.00 video frame)
Interleave, preload duration : 500 ms



Качество: TVRip
Формат: AVI
Видео кодек: DX50
Аудио кодек: MP3
Видео: 696x360 (1.93:1), 25 fps, DivX Codec 5.2.1 beta ~2307 kbps avg, 0.37 bit/pixel
Аудио: 44.100 kHz, MPEG Layer 3, 1 ch, ~96.00 kbps avg

Залил: С.Карпов













   Похожие торренты   Торрент   Размер 
В этой теме нет новых непрочитанных сообщений. Оптимистическая трагедия (1963) DVD5

45 | 3

4.12 ГБ

В этой теме нет новых непрочитанных сообщений. Трагедия в стиле рок (1988) TVRip

50 | 5

1.37 ГБ

В этой теме нет новых непрочитанных сообщений. Два воскресенья (1963) TVRip

9 | 7

835.29 МБ

В этой теме нет новых непрочитанных сообщений. Бабушкин козлик (1963) TVRip

4 | 8

163.87 МБ

В этой теме нет новых непрочитанных сообщений. Слепая птица (1963) TVRip

114 | 5

701.68 МБ

В этой теме нет новых непрочитанных сообщений. Выстрел в тумане (1963) TVRip

22 | 12

1.37 ГБ

В этой теме нет новых непрочитанных сообщений. Баранкин, будь человеком! (1963) TVRip

14 | 3

273.31 МБ




Вы не можете начинать темы
Вы не можете отвечать на сообщения
Вы не можете редактировать свои сообщения
Вы не можете удалять свои сообщения
Вы не можете добавлять вложения

Перейти:  
Для Мосгорсуда, Роскомнадзора и рекламодателей: mosgorsud-torrent[собачка]yandex.ru
 Вход
ppkBB3cker v.2 © 2008-2014 @ PPK
[ Time : 0.046s | 14 Queries | GZIP : Off ]

Торрент трекер RUTOR.IN, Не можете зайти на rutor.org? Какой новый адрес рутор? Какое зеркало рутор? Не работает rutor.org и зеркала? Тогда наш торрент специально для вас. Rutor.in неофициальное зеркало rutor. В случае если у Вас заблокирован rutor или вдруг Вы не можете на него зайти, то Вы без труда сможете скачать бесплатно и без рекламы последние новинки кино, игр, сериалов и прочего у нас, на Rutor.in. Не нужно использовать прокси, чтобы зайти на рутор, достаточно воспользоваться нашим ресурсом. Все новые фильмы, игры, сериалы, книги и музыка за 2013 и 2014 годы через торрент бесплатно. Скачивайте фильмы в хорошем качестве, игры для пк, xbox, playstation без регистрации. У нас вы найдете новые Зарубежные сериалы и Русские сериалы 2013, 2014, 2015 годов. Оставайтесь с нами, качайте любимые фильмы, игры, сериалы, книги и музыку.