img image001 image001 image001 image001 image001 image001 image001 image001 image001 image001 image001 image001 image001 image001 image001

Planets Sun Sun Sun
Статистика раздачи
Автор: Снежана | Размер: 4.37 ГБ | Добавлен: 24 июл 2013
Раздают: 0    Качают: 2
Скачать торрент
Скачать торрент
Описание торрента

СообщениеДобавлено: 24 июл 2013 

#77

[font=georgia]Информация о фильме
Название: Любовь-морковь 3
Год выхода: 2011
Жанр: комедия
Режиссер: Сергей Гинзбург
В ролях: Кристина Орбакайте, Гоша Куценко, Денис Парамонов, Алина Булынко, Лия Ахеджакова, Владимир Меньшов, Вячеслав Манучаров, Михаил Козаков, Андрей Ургант, Людмила Гаврилова и др.

О фильме:
В семье Голубевых — опять стихийное бедствие. Без предупреждения к ним нагрянула теща — утонченная любительница музыки и поэзии. А за ней свекор — бравый полковник, простой как Устав Вооруженных сил. Хотя со времени свадьбы прошло почти пятнадцать лет, мама Марины по-прежнему недолюбливает Андрея, а отец Андрея даже не скрывает, что мечтал о другой невестке. А уж когда старики сталкиваются друг с другом — это гром и молния! И как всегда, в самый сложный момент на пороге появляется профессор Коган, специалист по решению семейных проблем.


Страна: Россия
Продолжительность: 01:33:41
Перевод: Оригинал
Доп.инфа: Вырезаны дополнительные материалы

Файл
Качество: DVD5
Видео: 720х576, 25,000 кадр/сек, 6218 Кбит/сек
Звук: AC-3, 6 канала(ов), 448 Кбит/сек, 48,0 КГц

Общее
Полное имя : C:UsersGoldDesktopVIDEO_TSVTS_04_1.VOB
Формат : MPEG-PS
Размер файла : 1024 Мбайт
Продолжительность : 21 м.
Общий поток : 6801 Кбит/сек

Видео
Идентификатор : 224 (0xE0)
Формат : MPEG Video
Версия формата : Version 2
Профиль формата : Main@Main
Параметр BVOP формата : Да
Параметр матрицы формата : По умолчанию
Продолжительность : 21 м.
Вид битрейта : Переменный
Битрейт : 6218 Кбит/сек
Номинальный битрейт : 8000 Кбит/сек
Ширина : 720 пикс.
Высота : 576 пикс.
Соотношение сторон : 16:9
Частота кадров : 25,000 кадр/сек
Стандарт вещания : PAL
Цветовое пространство : YUV
Подвыборка цветности : 4:2:0
Битовая глубина : 8 бит
Тип развёртки : Чересстрочная
Порядок развёртки : Верхнее поле первое
Метод сжатия : С потерями
Бит/(Пиксели*Кадры) : 0.600
Размер потока : 936 Мбайт (91%)

Аудио
Идентификатор : 189 (0xBD)-128 (0x80)
Формат : AC-3
Формат/Информация : Audio Coding 3
Расширение режима : CM (complete main)
Режим смешивания : DVD-Video
Продолжительность : 21 м.
Вид битрейта : Постоянный
Битрейт : 448 Кбит/сек
Канал(ы) : 6 канала(ов)
Расположение каналов : Front: L C R, Side: L R, LFE
Частота : 48,0 КГц
Битовая глубина : 16 бит
Метод сжатия : С потерями
Размер потока : 67,4 Мбайт (7%)

Текст #1
Идентификатор : 189 (0xBD)-32 (0x20)
Формат : RLE
Формат/Информация : Run-length encoding
Режим смешивания : DVD-Video

Текст #2
Идентификатор : 189 (0xBD)-33 (0x21)
Формат : RLE
Формат/Информация : Run-length encoding
Режим смешивания : DVD-Video

Меню







   Похожие торренты   Торрент   Размер 
В этой теме нет новых непрочитанных сообщений. Любовь-морковь 3 (2011) Blu-Ray

4 | 4

22.68 ГБ

В этой теме нет новых непрочитанных сообщений. Любовь-морковь 3 (2011) HDRip

18 | 5

1.37 ГБ

В этой теме нет новых непрочитанных сообщений. Любовь-морковь 3 (2011) DVDRip | Лицензия

116 | 13

1.37 ГБ

В этой теме нет новых непрочитанных сообщений. Любовь-морковь 3 (2011) DVDRip | Лицензия

20 | 2

700.9 МБ

В этой теме нет новых непрочитанных сообщений. Любовь-морковь 3 (2011) DVD9 | Лицензия

2 | 20

6.31 ГБ

В этой теме нет новых непрочитанных сообщений. Любовь-морковь 3 (2011) DVDRip-AVC | лицензия

7 | 10

1.45 ГБ

В этой теме нет новых непрочитанных сообщений. Любовь-морковь 3 (2011) DVDRip от alldown | КПК

2 | 2

412.15 МБ




Вы не можете начинать темы
Вы не можете отвечать на сообщения
Вы не можете редактировать свои сообщения
Вы не можете удалять свои сообщения
Вы не можете добавлять вложения

Перейти:  
Для Мосгорсуда, Роскомнадзора и рекламодателей: mosgorsud-torrent[собачка]yandex.ru
 Вход
ppkBB3cker v.2 © 2008-2014 @ PPK
[ Time : 0.022s | 16 Queries | GZIP : Off ]

Торрент трекер RUTOR.IN, Не можете зайти на rutor.org? Какой новый адрес рутор? Какое зеркало рутор? Не работает rutor.org и зеркала? Тогда наш торрент специально для вас. Rutor.in неофициальное зеркало rutor. В случае если у Вас заблокирован rutor или вдруг Вы не можете на него зайти, то Вы без труда сможете скачать бесплатно и без рекламы последние новинки кино, игр, сериалов и прочего у нас, на Rutor.in. Не нужно использовать прокси, чтобы зайти на рутор, достаточно воспользоваться нашим ресурсом. Все новые фильмы, игры, сериалы, книги и музыка за 2013 и 2014 годы через торрент бесплатно. Скачивайте фильмы в хорошем качестве, игры для пк, xbox, playstation без регистрации. У нас вы найдете новые Зарубежные сериалы и Русские сериалы 2013, 2014, 2015 годов. Оставайтесь с нами, качайте любимые фильмы, игры, сериалы, книги и музыку.