img image001 image001 image001 image001 image001 image001 image001 image001 image001 image001 image001 image001 image001 image001 image001

Planets Sun Sun Sun
Статистика раздачи
Автор: Снежана | Размер: 1.36 ГБ | Добавлен: 24 июл 2013
Раздают: 32    Качают: 10
Скачать торрент
Скачать торрент
Описание торрента

СообщениеДобавлено: 24 июл 2013 

#77

Два долгих гудка в тумане /1980/ AVC







Информация о фильме:

Название: Два долгих гудка в тумане
Год выхода: 1980
Жанр: Детектив, Советское кино



Режиссер: Владимир Родченко
Сценарист: Эдгар Дубровский
Оператор: Владимир Ильин
Композитор: Аркадий Гагулашвили



В фильме снимались:
Александр Пороховщиков
Николай Гринько - Федор Петрович Калашников, капитан теплохода
Елена Капица - Нина
Дагун Омаев
Любовь Виролайнен
Виктор Проскурин
Андрей Толубеев
Александр Суснин
Пеэтер Урбла
Николай Федорцов - Зуев
и другие...



Описание: На дальнем севере, в безлюдной тундре вынужденную посадку совершает гидросамолет с инкассаторами, везущими немалую сумму денег. Самолет уносит ветер, и на другом берегу озера неизвестный совершает кражу, а свидетеля убивает на борту пассажирского теплохода, совершающего последний рейс перед закрытием навигации. Среди пестрой компании пассажиров скрывается рецидивист, и капитан начинает собственное расследование…



Страна:
Выпущено: Ленфильм
Продолжительность: 01:15:37
Перевод: Не требуется
Субтитры: Нет









[size=1]Format : MPEG-4
Format profile : Base Media
Codec ID : isom
File size : 1.36 GiB
Duration : 1h 15mn
Overall bit rate : 2 578 Kbps
Encoded date : UTC 2011-03-25 16:06:54
Tagged date : UTC 2011-03-25 16:06:54

Video
ID : 1
Format : AVC
Format/Info : Advanced Video Codec
Format profile : High@L3.0
Format settings, CABAC : Yes
Format settings, ReFrames : 4 frames
Format settings, GOP : M=1, N=2
Codec ID : avc1
Codec ID/Info : Advanced Video Coding
Duration : 1h 15mn
Bit rate mode : Variable
Bit rate : 2 122 Kbps
Maximum bit rate : 4 886 Kbps
Width : 960 pixels
Height : 408 pixels
Display aspect ratio : 2.35:1
Frame rate mode : Constant
Frame rate : 25.000 fps
Color space : YUV
Chroma subsampling : 4:2:0
Bit depth : 8 bits
Scan type : Progressive
Bits/(Pixel*Frame) : 0.217
Stream size : 1.12 GiB (83%)
Title : Imported with GPAC 0.4.6-DEV (build 1)
Writing library : x264 core 92 r1510 33d382a
Encoding settings : cabac=1 / ref=1 / deblock=1:-1:-1 / analyse=0x3:0x3 / me=dia / subme=1 / psy=1 / psy_rd=0.00:0.00 / mixed_ref=0 / me_range=16 / chroma_me=1 / trellis=0 / 8x8dct=1 / cqm=0 / deadzone=21,11 / fast_pskip=1 / chroma_qp_offset=0 / threads=1 / sliced_threads=0 / nr=0 / decimate=1 / interlaced=0 / constrained_intra=0 / bframes=3 / b_pyramid=2 / b_adapt=1 / b_bias=0 / direct=1 / wpredb=1 / wpredp=0 / keyint=250 / keyint_min=25 / scenecut=40 / intra_refresh=0 / rc=abr / mbtree=0 / bitrate=2122 / ratetol=1.0 / qcomp=0.60 / qpmin=10 / qpmax=51 / qpstep=4 / ip_ratio=1.40 / pb_ratio=1.30 / aq=1:1.00
Encoded date : UTC 2011-03-25 16:06:54
Tagged date : UTC 2011-03-25 16:09:06

Audio
ID : 2
Format : AC-3
Format/Info : Audio Coding 3
Mode extension : CM (complete main)
Codec ID : ac-3
Duration : 1h 15mn
Bit rate mode : Constant
Bit rate : 448 Kbps
Channel(s) : 6 channels
Channel positions : Front: L C R, Side: L R, LFE
Sampling rate : 48.0 KHz
Bit depth : 16 bits
Compression mode : Lossy
Stream size : 242 MiB (17%)
Title : Imported with GPAC 0.4.6-DEV (build 1)
Encoded date : UTC 2011-03-25 16:08:41
Tagged date : UTC 2011-03-25 16:09:06



Качество: DVDRip-AVC /Исходник DVD5/
Формат: MKV
Видео кодек: x264
Аудио кодек: AC3
Видео: MPEG4 Video (H264) 960x408, 25.00fps, ~2122 kbps avg, 0.21 bit/pixel
Аудио: Dolby AC3 | 448Kbps | 6 channels | 16bit | 48000khz

Релиз от:
Автор рипа: С.Карпов












   Похожие торренты   Торрент   Размер 
В этой теме нет новых непрочитанных сообщений. Два долгих гудка в тумане (1980) DVDRip от Big111

18 | 7

1.08 ГБ

В этой теме нет новых непрочитанных сообщений. Затерянные в тумане / В тумане / Fogbound (2002) DVDRip от FilmRus | P2

131 | 24

1.37 ГБ

В этой теме нет новых непрочитанных сообщений. В тумане (2012) DVDRip

38 | 5

1.46 ГБ

В этой теме нет новых непрочитанных сообщений. В тумане (2012) DVDRip

61 | 4

2.19 ГБ

В этой теме нет новых непрочитанных сообщений. Ёжик в тумане (1975) DVDRip | КПК

181 | 8

59.86 МБ

В этой теме нет новых непрочитанных сообщений. В тумане (2012) DVDRip-AVC от MediaClub

19 | 2

2.04 ГБ

В этой теме нет новых непрочитанных сообщений. В тумане (2012) DVDRip от Scarabey

9 | 5

780.27 МБ




Вы не можете начинать темы
Вы не можете отвечать на сообщения
Вы не можете редактировать свои сообщения
Вы не можете удалять свои сообщения
Вы не можете добавлять вложения

Перейти:  
Для Мосгорсуда, Роскомнадзора и рекламодателей: mosgorsud-torrent[собачка]yandex.ru
 Вход
ppkBB3cker v.2 © 2008-2014 @ PPK
[ Time : 0.037s | 15 Queries | GZIP : Off ]

Торрент трекер RUTOR.IN, Не можете зайти на rutor.org? Какой новый адрес рутор? Какое зеркало рутор? Не работает rutor.org и зеркала? Тогда наш торрент специально для вас. Rutor.in неофициальное зеркало rutor. В случае если у Вас заблокирован rutor или вдруг Вы не можете на него зайти, то Вы без труда сможете скачать бесплатно и без рекламы последние новинки кино, игр, сериалов и прочего у нас, на Rutor.in. Не нужно использовать прокси, чтобы зайти на рутор, достаточно воспользоваться нашим ресурсом. Все новые фильмы, игры, сериалы, книги и музыка за 2013 и 2014 годы через торрент бесплатно. Скачивайте фильмы в хорошем качестве, игры для пк, xbox, playstation без регистрации. У нас вы найдете новые Зарубежные сериалы и Русские сериалы 2013, 2014, 2015 годов. Оставайтесь с нами, качайте любимые фильмы, игры, сериалы, книги и музыку.
cron