img image001 image001 image001 image001 image001 image001 image001 image001 image001 image001 image001 image001 image001 image001 image001

Planets Sun Sun Sun
Статистика раздачи
Автор: Снежана | Размер: 1.35 ГБ | Добавлен: 24 июл 2013
Раздают: 36    Качают: 5
Скачать торрент
Скачать торрент
Описание торрента

СообщениеДобавлено: 24 июл 2013 

#77

ЧП районного масштаба /1988/ AVC





"Пойми, дурилка картонная, в комсомоле работают не только головой, но и печенью!"



Информация о фильме:

Название: ЧП районного масштаба
Год выхода: 1988
Жанр: Драма, Комедия, Советское кино



Режиссер: Сергей Снежкин
Сценарист: Юрий Поляков
Оператор: Владимир Бурыкин
Композитор: Александр Кнайфель



В фильме снимались:
Игорь Бочкин — Николай Петрович Шумилин, первый секретарь Краснопролетарского райкома ВЛКСМ
Леонард Варфоломеев — Владимир Сергеевич Ковалевский, секретарь райкома КПСС
Елена Анисимова — Надежда Геннадьевна Комиссарова, третий секретарь райкома ВЛКСМ
Виталий Усанов — Олег Чесноков, зав. отделом райкома
Надежда Ицкова — Галя, жена Николая
Юрий Кузнецов — капитан Мансуров, следователь
Елена Антонова — Таня, любовница Николая
Эвелина Блёданс — Милочка, секретарь
Юрий Демич — Околотков, секретарь горкома ВЛКСМ
Надежда Румянцева
Семен Фурман — ведущий слёта
Николай Дик — инструктор
Герман Орлов
Анатолий Сливников — водитель Шумилина
Валентина Панина — Людмила Александровна Королёва, секретарь обкома КПСС
Алла Мурина — Эллочка
Сергей Войтов — Шестопалов
Сергей Волков — Бутенин
Леонид Андриянов — Локтюков
Василий Малов — Максим
Андрей Смирнов — Цимбалюк
Александр Шурыгин — Хомич
Ольга Чайникова — мать Семёнова
и другие...



Описание: Годы застоя. Жируют и погрязли в разврате и пьянстве комсомольские лидеры. Первый секретарь райкома комсомола Николай Шумилин выдвинут на руководящую работу в горком.
После организованной по этому событию попойки из здания райкома пропадает знамя. Теперь карьера Шумилина висит на волоске.




Страна:
Выпущено: Ленфильм
Продолжительность: 01:29:21
Перевод: Не требуется
Субтитры: Нет









[size=1]Format : MPEG-4
Format profile : Base Media
Codec ID : isom
File size : 1.35 GiB
Duration : 1h 29mn
Overall bit rate : 2 164 Kbps
Encoded date : UTC 2011-03-27 17:02:33
Tagged date : UTC 2011-03-27 17:02:33

Video
ID : 1
Format : AVC
Format/Info : Advanced Video Codec
Format profile : High@L3.0
Format settings, CABAC : Yes
Format settings, ReFrames : 5 frames
Format settings, GOP : N=1
Codec ID : avc1
Codec ID/Info : Advanced Video Coding
Duration : 1h 29mn
Bit rate mode : Variable
Bit rate : 1 982 Kbps
Maximum bit rate : 5 132 Kbps
Width : 896 pixels
Height : 384 pixels
Display aspect ratio : 2.35:1
Frame rate mode : Constant
Frame rate : 25.000 fps
Color space : YUV
Chroma subsampling : 4:2:0
Bit depth : 8 bits
Scan type : Progressive
Bits/(Pixel*Frame) : 0.230
Stream size : 1.23 GiB (91%)
Title : Imported with GPAC 0.4.6-DEV (build 1)
Writing library : x264 core 92 r1510 33d382a
Encoding settings : cabac=1 / ref=5 / deblock=1:-1:-1 / analyse=0x3:0x3 / me=dia / subme=1 / psy=1 / psy_rd=0.00:0.00 / mixed_ref=0 / me_range=16 / chroma_me=1 / trellis=0 / 8x8dct=1 / cqm=0 / deadzone=21,11 / fast_pskip=1 / chroma_qp_offset=0 / threads=1 / sliced_threads=0 / nr=0 / decimate=1 / interlaced=0 / constrained_intra=0 / bframes=3 / b_pyramid=2 / b_adapt=1 / b_bias=0 / direct=1 / wpredb=1 / wpredp=0 / keyint=250 / keyint_min=25 / scenecut=40 / intra_refresh=0 / rc=abr / mbtree=0 / bitrate=1982 / ratetol=1.0 / qcomp=0.60 / qpmin=10 / qpmax=51 / qpstep=4 / ip_ratio=1.40 / pb_ratio=1.30 / aq=1:1.00
Encoded date : UTC 2011-03-27 17:02:33
Tagged date : UTC 2011-03-27 17:04:51

Audio
ID : 2
Format : MPEG Audio
Format version : Version 1
Format profile : Layer 3
Codec ID : 6B
Duration : 1h 29mn
Bit rate mode : Variable
Bit rate : 182 Kbps
Nominal bit rate : 192 Kbps
Maximum bit rate : 207 Kbps
Channel(s) : 2 channels
Sampling rate : 48.0 KHz
Compression mode : Lossy
Stream size : 116 MiB (8%)
Title : Imported with GPAC 0.4.6-DEV (build 1)
Writing library : LAME3.98r
Encoding settings : -m s -V 4 -q 2 -lowpass 18.6 --abr 192
Encoded date : UTC 2011-03-27 17:04:39
Tagged date : UTC 2011-03-27 17:04:51



Качество: DVDRip-AVC /Исходник DVD5/
Формат: MKV
Видео кодек: x264
Аудио кодек: MP3
Видео: MPEG4 Video (H264) 896x384, 25.00fps, ~1982 kbps avg, 0.23 bit/pixel
Аудио: MP3 | 192kbps | 2 channels | 16bit | 48000khz

Релиз от:
Автор рипа: С.Карпов












   Похожие торренты   Торрент   Размер 
В этой теме нет новых непрочитанных сообщений. ЧП районного масштаба (1988) DVDRip

4 | 3

745.18 МБ

В этой теме нет новых непрочитанных сообщений. ЧП районного масштаба (1988) DVD-5

2 | 4

3.97 ГБ

В этой теме нет новых непрочитанных сообщений. Девять Апельсинов / Сыщики районного масштаба 2 [02x01-08] (2008) DVDRip

21 | 12

3.42 ГБ

В этой теме нет новых непрочитанных сообщений. Топографические карты масштаба 1:50000. Часть 2. (1960-1990) JPG

37 | 22

12.23 ГБ

В этой теме нет новых непрочитанных сообщений. Топографические карты масштаба 1:50000. Часть 1 (1960-1990) JPG

49 | 45

10.44 ГБ

В этой теме нет новых непрочитанных сообщений. Угрозы современного мира: Жажда планетарного масштаба (2012) SATRip

0 | 3

338.6 МБ

В этой теме нет новых непрочитанных сообщений. Остин Пауэрс: Человек-Загадка Международного Масштаба (1997) BDRip от HQ-ViDEO

8 | 4

1.46 ГБ




Вы не можете начинать темы
Вы не можете отвечать на сообщения
Вы не можете редактировать свои сообщения
Вы не можете удалять свои сообщения
Вы не можете добавлять вложения

Перейти:  
Для Мосгорсуда, Роскомнадзора и рекламодателей: mosgorsud-torrent[собачка]yandex.ru
 Вход
ppkBB3cker v.2 © 2008-2014 @ PPK
[ Time : 0.044s | 14 Queries | GZIP : Off ]

Торрент трекер RUTOR.IN, Не можете зайти на rutor.org? Какой новый адрес рутор? Какое зеркало рутор? Не работает rutor.org и зеркала? Тогда наш торрент специально для вас. Rutor.in неофициальное зеркало rutor. В случае если у Вас заблокирован rutor или вдруг Вы не можете на него зайти, то Вы без труда сможете скачать бесплатно и без рекламы последние новинки кино, игр, сериалов и прочего у нас, на Rutor.in. Не нужно использовать прокси, чтобы зайти на рутор, достаточно воспользоваться нашим ресурсом. Все новые фильмы, игры, сериалы, книги и музыка за 2013 и 2014 годы через торрент бесплатно. Скачивайте фильмы в хорошем качестве, игры для пк, xbox, playstation без регистрации. У нас вы найдете новые Зарубежные сериалы и Русские сериалы 2013, 2014, 2015 годов. Оставайтесь с нами, качайте любимые фильмы, игры, сериалы, книги и музыку.