img image001 image001 image001 image001 image001 image001 image001 image001 image001 image001 image001 image001 image001 image001 image001

Planets Sun Sun Sun
Статистика раздачи
Автор: Снежана | Размер: 4.36 ГБ | Добавлен: 24 июл 2013
Раздают: 0    Качают: 2
Скачать торрент
Скачать торрент
Описание торрента

СообщениеДобавлено: 24 июл 2013 

#77

Информация о фильме
Название: Ты и я
Год выхода: 2011
Жанр: мелодрама, комедия
Режиссер: Роланд Жоффе
В ролях: Антон Ельчин, Миша Бартон, Шантель Ван Сантен, Олеся Судзиловская, Александр Белоногов, Александр Семчев, Юлия Волкова, Лена Катина, Григорий Леваков, Трой МакКаббин

О фильме:
Главная героиня фильма — шестнадцатилетняя американка Джейни Соер — недавно переехала в Москву и «влюбилась» в группу Тату. На почве музыкальных пристрастий героиня знакомится в чате с русской сверстницей Ланой Старковой, и они вместе отправляются на концерт.
Но, оказывается, не так-то просто попасть в Москве на стадион. По пути девчонок ожидает масса неожиданностей и опасностей, которые таит ночной город и проверят их дружбу на прочность.

Страна: США, Россия
Продолжительность: 01:33:21
Перевод: Оригинал [Лицензия]
Бонусы: Анонсы фильмов, трейлер

Общее
Полное имя : E:Новинки 2011Ty.i.ya.2010.DVD5VIDEO_TSVTS_04_1.VOB
Формат : MPEG-PS
Размер файла : 1024 Мбайт
Продолжительность : 24 м.
Общий поток : 5943 Кбит/сек

Видео
Идентификатор : 224 (0xE0)
Формат : MPEG Video
Версия формата : Version 2
Профиль формата : Main@Main
Параметр BVOP формата : Да
Параметр матрицы формата : По умолчанию
Продолжительность : 24 м.
Вид битрейта : Переменный
Битрейт : 5377 Кбит/сек
Номинальный битрейт : 8000 Кбит/сек
Ширина : 720 пикс.
Высота : 576 пикс.
Соотношение сторон : 4:3
Частота кадров : 25,000 кадр/сек
Стандарт вещания : PAL
Цветовое пространство : YUV
Подвыборка цветности : 4:2:0
Битовая глубина : 8 бит
Тип развёртки : Чересстрочная
Порядок развёртки : Верхнее поле первое
Метод сжатия : С потерями
Бит/(Пиксели*Кадры) : 0.519
Размер потока : 926 Мбайт (90%)

Аудио
Идентификатор : 189 (0xBD)-128 (0x80)
Формат : AC-3
Формат/Информация : Audio Coding 3
Расширение режима : CM (complete main)
Режим смешивания : DVD-Video
Продолжительность : 24 м.
Вид битрейта : Постоянный
Битрейт : 448 Кбит/сек
Канал(ы) : 6 канала(ов)
Расположение каналов : Front: L C R, Side: L R, LFE
Частота : 48,0 КГц
Битовая глубина : 16 бит
Метод сжатия : С потерями
Размер потока : 77,2 Мбайт (8%)


Файл
Качество: DVD5 R5
Формат: DVD-Video
Видео кодек: MPEG2
Аудио кодек: AC3
Видео: PAL 16:9 (720x576(0.519)) MPEG Video,25,000 кадр/сек, 5377 Кбит/сек
Аудио: Russian (Dolby AC3, 6 ch) 448 Кбит/сек, 48,0 КГц






   Похожие торренты   Торрент   Размер 
В этой теме нет новых непрочитанных сообщений. Rammstein - Made in Germany 1995-2011 Super Deluxe Edition (2011) DVD5

10 | 15

13.1 ГБ

В этой теме нет новых непрочитанных сообщений. Gorillaz - The Singles Collection 2001 - 2011 (2011) DVD5

3 | 3

4.37 ГБ

В этой теме нет новых непрочитанных сообщений. Шхера-18 (2011) DVD5

5 | 3

4.33 ГБ

В этой теме нет новых непрочитанных сообщений. Не впускай его / Don't Let Him In (2011) DVD5

0 | 2

4.18 ГБ

В этой теме нет новых непрочитанных сообщений. Настоятель 2 (2011) DVD5

2 | 3

3.81 ГБ

В этой теме нет новых непрочитанных сообщений. Без мужчин (2011) DVD5

3 | 4

4.18 ГБ

В этой теме нет новых непрочитанных сообщений. Камень (2011) DVD5

1 | 2

4.36 ГБ




Вы не можете начинать темы
Вы не можете отвечать на сообщения
Вы не можете редактировать свои сообщения
Вы не можете удалять свои сообщения
Вы не можете добавлять вложения

Перейти:  
Для Мосгорсуда, Роскомнадзора и рекламодателей: mosgorsud-torrent[собачка]yandex.ru
 Вход
ppkBB3cker v.2 © 2008-2014 @ PPK
[ Time : 0.558s | 16 Queries | GZIP : Off ]

Торрент трекер RUTOR.IN, Не можете зайти на rutor.org? Какой новый адрес рутор? Какое зеркало рутор? Не работает rutor.org и зеркала? Тогда наш торрент специально для вас. Rutor.in неофициальное зеркало rutor. В случае если у Вас заблокирован rutor или вдруг Вы не можете на него зайти, то Вы без труда сможете скачать бесплатно и без рекламы последние новинки кино, игр, сериалов и прочего у нас, на Rutor.in. Не нужно использовать прокси, чтобы зайти на рутор, достаточно воспользоваться нашим ресурсом. Все новые фильмы, игры, сериалы, книги и музыка за 2013 и 2014 годы через торрент бесплатно. Скачивайте фильмы в хорошем качестве, игры для пк, xbox, playstation без регистрации. У нас вы найдете новые Зарубежные сериалы и Русские сериалы 2013, 2014, 2015 годов. Оставайтесь с нами, качайте любимые фильмы, игры, сериалы, книги и музыку.