img image001 image001 image001 image001 image001 image001 image001 image001 image001 image001 image001 image001 image001 image001 image001

Planets Sun Sun Sun
Статистика раздачи
Автор: Снежана | Размер: 2.29 ГБ | Добавлен: 24 июл 2013
Раздают: 259    Качают: 22
Скачать торрент
Скачать торрент
Описание торрента

СообщениеДобавлено: 24 июл 2013 

[font=Georgia]
Офицеры (1971) BDRip-AVC от DHT-Movies [Цветная Версия]
#77

Год выпуска: 1971
Страна: СССР
Жанр: драма, мелодрама
Продолжительность: 01:35:26
Перевод: Не требуется



Режиссер: Владимир Роговой

Премьера (мир): 26 июля 1971
Релиз на Blu-Ray: 24 марта 2011, «Новый Диск»
Релиз на DVD: 25 ноября 2010, «Новый Диск»

В ролях: Георгий Юматов, Василий Лановой, Алина Покровская, Александр Воеводин, Наталья Рычагова, Владимир Дружников, Андрей Громов, Юрий Сорокин, Шаджан Акмухамедов, Евгений Весник

Описание: Судьбы двух друзей — Алексея Трофимова и Ивана Вараввы — прослеживаются на протяжении многих лет. В 20-е они вместе служили на пограничной заставе, бились с басмачами. Там они, будучи еще совсем молодыми, на всю жизнь запомнили наказ своего командира: «Есть такая профессия — родину защищать». Потом Испания, Великая Отечественная война и мирные дни. Старые друзья снова встречаются, уже став генералами.
Качество: BDRip-AVC [Исходник: / Blu-Ray / 1080p]
Формат: MKV
Видео кодек: H.264
Аудио кодек: AC3
Видео: 1024x428 (2,35:1), 24 fps, H.264 ~2914 kbps avg, 0.277 bit/pixel
Аудио (Русский): 48 kHz, AC3 Dolby Digital, 3/2 (L,C,R,l,r) + LFE ch, ~448.00 kbps avg
Субтитры: Нет
Релиз группы | by MaxVeLL

Сохранены главы как на Blu-Ray.

Общее
Уникальный идентификатор : 201468579431769624868326190805329298754 (0x97916FDF1B2F82B5A897CF4356B6C542)
Полное имя : D:Oficery.1971.BDRip-AVC.MKV.x264.DHT-Movies.mkv
Формат : Matroska
Размер файла : 2,29 Гбайт
Продолжительность : 1 ч. 35 м.
Общий поток : 3430 Кбит/сек
Название фильма : Автор рипа: MaxVeLL | R.G.DHT-Movies
Дата кодирования : UTC 2011-05-03 09:14:05
Программа кодирования : mkvmerge v4.7.0 ('Just Like You Imagined') зібрано Apr 21 2011 01:13:14
Библиотека кодирования : libebml v1.2.0 + libmatroska v1.1.0

Видео
Идентификатор : 1
Формат : AVC
Формат/Информация : Advanced Video Codec
Профиль формата : High@L4.1
Параметр CABAC формата : Да
Параметр ReFrames формата : 7 кадры
Параметры GOP формата : M=4, N=33
Идентификатор кодека : V_MPEG4/ISO/AVC
Продолжительность : 1 ч. 35 м.
Битрейт : 2914 Кбит/сек
Ширина : 1024 пикс.
Высота : 428 пикс.
Соотношение сторон : 2,35:1
Частота кадров : 24,000 кадр/сек
Стандарт вещания : NTSC
Цветовое пространство : YUV
Подвыборка цветности : 4:2:0
Битовая глубина : 8 бит
Тип развёртки : Прогрессивная
Бит/(Пиксели*Кадры) : 0.277
Размер потока : 1,94 Гбайт (85%)
Язык : Russian
Основные цвета : BT.709-5, BT.1361, IEC 61966-2-4, SMPTE RP177
Характеристики трансфера : BT.709-5, BT.1361
Коэффициенты матрицы : BT.709-5, BT.1361, IEC 61966-2-4 709, SMPTE RP177

Аудио
Идентификатор : 2
Формат : AC-3
Формат/Информация : Audio Coding 3
Расширение режима : CM (complete main)
Идентификатор кодека : A_AC3
Продолжительность : 1 ч. 35 м.
Вид битрейта : Постоянный
Битрейт : 448 Кбит/сек
Канал(ы) : 6 канала(ов)
Расположение каналов : Front: L C R, Side: L R, LFE
Частота : 48,0 КГц
Битовая глубина : 16 бит
Метод сжатия : С потерями
Размер потока : 306 Мбайт (13%)
Язык : Russian

Меню
00:00:00.000 : ru:Пролог. Титры
00:04:04.916 : ru:Назначение
00:15:12.582 : ru:Схватка с басмачами
00:22:17.874 : ru:Рождение сына
00:34:07.582 : ru:"Жених!"
00:35:54.791 : ru:Неожиданная встреча
00:41:49.874 : ru:Егор и Маша
00:50:15.041 : ru:Ранение
00:53:00.416 : ru:Семья
01:01:05.166 : ru:Санитарный поезд. Внук Ванечка
01:12:29.582 : ru:Известие о гибели сына
01:14:32.541 : ru:Прошли годы...
01:20:27.666 : ru:"Есть такая профессия..."
01:24:26.916 : ru:Встреча с прошлым
01:29:04.082 : ru:Возвращение в дивизию
01:32:13.499 : ru:Эпилог




   Похожие торренты   Торрент   Размер 
В этой теме нет новых непрочитанных сообщений. Офицеры (1971) BDRip от HQCLUB | Цветная версия

499 | 45

1.45 ГБ

В этой теме нет новых непрочитанных сообщений. Офицеры (1971) BDRip 720p от MediaClub | Цветная Версия

827 | 69

3.9 ГБ

В этой теме нет новых непрочитанных сообщений. Офицеры (1971) DVDRip | Цветная версия

190 | 7

1.5 ГБ

В этой теме нет новых непрочитанных сообщений. Офицеры (1971) Blu-Ray Remux | Цветная версия

252 | 46

19.97 ГБ

В этой теме нет новых непрочитанных сообщений. Офицеры (1971) DVDRip | Цветная версия

72 | 38

1.37 ГБ

В этой теме нет новых непрочитанных сообщений. Офицеры (1971) DVD5 | Цветная версия

79 | 15

4.35 ГБ

В этой теме нет новых непрочитанных сообщений. Офицеры (1971) HDRip от Scarabey | Цветная версия

1307 | 40

1.4 ГБ




Вы не можете начинать темы
Вы не можете отвечать на сообщения
Вы не можете редактировать свои сообщения
Вы не можете удалять свои сообщения
Вы не можете добавлять вложения

Перейти:  
Для Мосгорсуда, Роскомнадзора и рекламодателей: mosgorsud-torrent[собачка]yandex.ru
 Вход
ppkBB3cker v.2 © 2008-2014 @ PPK
[ Time : 0.039s | 14 Queries | GZIP : Off ]

Торрент трекер RUTOR.IN, Не можете зайти на rutor.org? Какой новый адрес рутор? Какое зеркало рутор? Не работает rutor.org и зеркала? Тогда наш торрент специально для вас. Rutor.in неофициальное зеркало rutor. В случае если у Вас заблокирован rutor или вдруг Вы не можете на него зайти, то Вы без труда сможете скачать бесплатно и без рекламы последние новинки кино, игр, сериалов и прочего у нас, на Rutor.in. Не нужно использовать прокси, чтобы зайти на рутор, достаточно воспользоваться нашим ресурсом. Все новые фильмы, игры, сериалы, книги и музыка за 2013 и 2014 годы через торрент бесплатно. Скачивайте фильмы в хорошем качестве, игры для пк, xbox, playstation без регистрации. У нас вы найдете новые Зарубежные сериалы и Русские сериалы 2013, 2014, 2015 годов. Оставайтесь с нами, качайте любимые фильмы, игры, сериалы, книги и музыку.