img image001 image001 image001 image001 image001 image001 image001 image001 image001 image001 image001 image001 image001 image001 image001

Planets Sun Sun Sun
Статистика раздачи
Автор: Снежана | Размер: 6.91 ГБ | Добавлен: 24 июл 2013
Раздают: 9    Качают: 1
Скачать торрент
Скачать торрент
Описание торрента

СообщениеДобавлено: 24 июл 2013 

#77

Год выпуска: 2011
Страна: Россия, Rambler Media
Жанр: фантастика, драма, комедия
Продолжительность: 01:52:18
Перевод: Оригинал [лицензия]
Субтитры: Нет

Режиссер: Виктор Гинзбург

В ролях: Владимир Епифанцев, Михаил Ефремов, Андрей Фомин, Владимир Меньшов, Александр Гордон, Олег Тактаров, Рената Литвинова, Андрей Панин, Сергей Шнуров, Леонид Парфенов и др.


Описание: Основанный на культовом романе Виктора Пелевина фильм «Generation П» во многом строится на галлюцинациях — включая речь Че Гевары о том, почему и как телевидение разрушает человека. Однако через изменённую реальность проступает кропотливо восстановленная атмосфера Москвы в 90-е годы, на фоне которой и разворачивается действие картины. Вавилен Татарский, нашедший себя в новой жизни в роли сотрудника рекламного агентства, занимается продвижением западных брендов, адаптируя их под «русскую ментальность». Умный и местами чудовищно смешной, насыщенный спецэффектами и откровениями фильм делает простой и понятной сложную историю о том, как бывшие пионеры стали рекламщиками на службе у богини Иштар, а «поколение Пепси» выбрало Coca-Cola.


Релиз группы:


Качество: DVD9
Формат: DVD-Video
Видео кодек:MPEG-2 Video
Аудио кодек: AC3
Видео: MPEG 2 DVD, 4823 кб/с, PAL 16:9 (720x576)
Аудио: AC3, 448 kb/s (6 ch) / AC3, 192 kb/s (2 ch) / DTS, 1510 kb/s (5 ch)
Смотрите на DVD

[align=center]





[/align]

Format : MPEG-PS
File size : 1 024 MiB
Duration : 18mn 12s
Overall bit rate : 7 864 Kbps

Video
ID : 224 (0xE0)
Format : MPEG Video
Format version : Version 2
Format profile : Main@Main
Format settings, BVOP : Yes
Format settings, Matrix : Default
Duration : 18mn 12s
Bit rate mode : Variable
Bit rate : 5 402 Kbps
Nominal bit rate : 7 000 Kbps
Width : 720 pixels
Height : 576 pixels
Display aspect ratio : 16:9
Frame rate : 25.000 fps
Standard : PAL
Resolution : 8 bits
Colorimetry : 4:2:0
Scan type : Interlaced
Scan order : Top Field First
Bits/(Pixel*Frame) : 0.521
Stream size : 703 MiB (69%)

Audio #1
ID : 128 (0x80)
Format : AC-3
Format/Info : Audio Coding 3
Duration : 18mn 11s
Bit rate mode : Constant
Bit rate : 448 Kbps
Channel(s) : 6 channels
Channel positions : Front: L C R, Surround: L R, LFE
Sampling rate : 48.0 KHz
Stream size : 58.3 MiB (6%)

Audio #2
ID : 129 (0x81)
Format : AC-3
Format/Info : Audio Coding 3
Duration : 18mn 11s
Bit rate mode : Constant
Bit rate : 192 Kbps
Channel(s) : 2 channels
Channel positions : L R
Sampling rate : 48.0 KHz
Stream size : 25.0 MiB (2%)

Audio #3
ID : 138 (0x8A)
Format : DTS
Format/Info : Digital Theater Systems
Duration : 18mn 11s
Bit rate mode : Constant
Bit rate : 1 510 Kbps
Channel(s) : 6 channels
Channel positions : Front: L C R, Surround: L R, LFE
Sampling rate : 48.0 KHz
Resolution : 24 bits
Stream size : 196 MiB (19%)

Menu



При размещении релиза на других ресурсах, просьба не менять название файла, и ставить наш баннер.



   Похожие торренты   Торрент   Размер 
В этой теме нет новых непрочитанных сообщений. Концерт Girls’ Generation Tour / Girls’ Generation Tour (2011) DVDRip

107 | 30

2.77 ГБ

В этой теме нет новых непрочитанных сообщений. Generation П (2011) Blu-Ray

1 | 3

30.71 ГБ

В этой теме нет новых непрочитанных сообщений. Generation П (2011) DVD5

1 | 2

4.35 ГБ

В этой теме нет новых непрочитанных сообщений. OST - Generation П from AGR (Unofficial) (2011) MP3

7 | 1

355.3 МБ

В этой теме нет новых непрочитанных сообщений. VA - Generation of the Pop punk. Pt2 (2011) MP3

0 | 1

143.33 МБ

В этой теме нет новых непрочитанных сообщений. Generation П (2011) BDRip от HQCLUB

49 | 4

2.18 ГБ

В этой теме нет новых непрочитанных сообщений. Generation П (2011) BDRip от HELLYWOOD

10 | 2

2.18 ГБ




Вы не можете начинать темы
Вы не можете отвечать на сообщения
Вы не можете редактировать свои сообщения
Вы не можете удалять свои сообщения
Вы не можете добавлять вложения

Перейти:  
Для Мосгорсуда, Роскомнадзора и рекламодателей: mosgorsud-torrent[собачка]yandex.ru
 Вход
ppkBB3cker v.2 © 2008-2014 @ PPK
[ Time : 0.081s | 15 Queries | GZIP : On ]

Торрент трекер RUTOR.IN, Не можете зайти на rutor.org? Какой новый адрес рутор? Какое зеркало рутор? Не работает rutor.org и зеркала? Тогда наш торрент специально для вас. Rutor.in неофициальное зеркало rutor. В случае если у Вас заблокирован rutor или вдруг Вы не можете на него зайти, то Вы без труда сможете скачать бесплатно и без рекламы последние новинки кино, игр, сериалов и прочего у нас, на Rutor.in. Не нужно использовать прокси, чтобы зайти на рутор, достаточно воспользоваться нашим ресурсом. Все новые фильмы, игры, сериалы, книги и музыка за 2013 и 2014 годы через торрент бесплатно. Скачивайте фильмы в хорошем качестве, игры для пк, xbox, playstation без регистрации. У нас вы найдете новые Зарубежные сериалы и Русские сериалы 2013, 2014, 2015 годов. Оставайтесь с нами, качайте любимые фильмы, игры, сериалы, книги и музыку.
cron