img image001 image001 image001 image001 image001 image001 image001 image001 image001 image001 image001 image001 image001 image001 image001 image001

Planets Sun Sun Sun
Статистика раздачи
Автор: Снежана | Размер: 2.17 ГБ | Добавлен: 24 июл 2013
Раздают: 166    Качают: 9
Скачать торрент
Скачать торрент
Описание торрента

СообщениеДобавлено: 24 июл 2013 

#77

Название: В бой идут одни «старики»
Год выпуска: 1973
Страна: СССР
Жанр: Драма, комедия, военный
Продолжительность: 01:31:53
Субтитры: Нет

Режиссер: Леонид Быков

В ролях: Леонид Быков, Сергей Подгорный, Сергей Иванов, Рустам Сагдуллаев, Евгения Симонова, Ольга Матешко, Владимир Талашко, Алексей Смирнов, Виктор Мирошниченко и др.

Описание: Эта эскадрилья стала «поющей» - так капитан Титаренко подбирал себе новичков. Его «старикам» было не больше двадцати, но «желторотиков», пополнение из летных училищ ускоренного выпуска, в бой все равно, по возможности, не пускали. Им еще многое предстояло испытать - и жар боев, и радость первой победы над врагом, и величие братства, скрепленного кровью, и первую любовь, и горечь утраты... И настанет день, когда по команде «в бой идут одни старики» бывшие желторотики бросятся к своим самолетам...
Качество: BDRip-AVC || Источник: tink45 / Blu-ray disc / 1080p || Сэмпл
Формат: MKV
Видео: 804x584 (1.37:1), 24.000 fps, H.264 ~2932 kbps avg, 0.26 bit/pixel
Аудио: 48 kHz, AC3 Dolby Digital, 3/2 (L,C,R,l,r) + LFE ch, ~448.00 kbps avg






x264 [info]: frame I:730 Avg QP:19.25 size: 54176
x264 [info]: frame P:29127 Avg QP:21.91 size: 25105
x264 [info]: frame B:102455 Avg QP:23.60 size: 12195
x264 [info]: consecutive B-frames: 1.7% 2.3% 6.8% 34.1% 15.3% 21.7% 7.3% 5.3% 2.5% 1.6% 1.4%
x264 [info]: mb I I16..4: 4.0% 80.1% 15.9%
x264 [info]: mb P I16..4: 0.8% 17.1% 2.3% P16..4: 36.7% 28.7% 11.5% 0.0% 0.0% skip: 2.9%
x264 [info]: mb B I16..4: 0.1% 2.0% 0.3% B16..8: 42.9% 19.4% 4.7% direct:11.6% skip:18.9% L0:45.9% L1:40.7% BI:13.4%
x264 [info]: 8x8 transform intra:83.5% inter:69.7%
x264 [info]: direct mvs spatial:99.7% temporal:0.3%
x264 [info]: coded y,uvDC,uvAC intra: 88.2% 54.9% 19.9% inter: 48.2% 11.6% 0.5%
x264 [info]: i16 v,h,dc,p: 34% 17% 9% 40%
x264 [info]: i8 v,h,dc,ddl,ddr,vr,hd,vl,hu: 12% 11% 6% 9% 14% 13% 13% 11% 12%
x264 [info]: i4 v,h,dc,ddl,ddr,vr,hd,vl,hu: 10% 19% 3% 7% 14% 13% 13% 9% 11%
x264 [info]: i8c dc,h,v,p: 42% 27% 19% 11%
x264 [info]: Weighted P-Frames: Y:34.9% UV:5.3%
x264 [info]: ref P L0: 39.4% 10.3% 17.1% 8.6% 6.5% 5.0% 4.1% 2.7% 2.3% 1.9% 1.6% 0.6% 0.0%
x264 [info]: ref B L0: 64.8% 14.6% 7.4% 4.1% 3.0% 2.3% 1.9% 1.1% 0.6% 0.3%
x264 [info]: ref B L1: 91.8% 8.2%
x264 [info]: kb/s:2931.65

x264 [total]: encoded 132312 frames, 7.37 fps, 2931.65 kb/s

General
Unique ID : 187655152180951803299392898085647183505 (0x8D2D1153806B5702A2BD2628349A6E91)
Format : Matroska
File size : 2.17 GiB
Duration : 1h 31mn
Overall bit rate : 3 381 Kbps
Encoded date : UTC 2011-05-05 10:16:40
Writing application : mkvmerge v4.6.0 ('Still Crazy After All These Years') сборка от Mar 10 2011 02:50:32
Writing library : libebml v1.2.0 + libmatroska v1.1.0

Video
ID : 1
Format : AVC
Format/Info : Advanced Video Codec
Format profile : High@L4.1
Format settings, CABAC : Yes
Format settings, ReFrames : 11 frames
Format settings, GOP : N=1
Codec ID : V_MPEG4/ISO/AVC
Duration : 1h 31mn
Bit rate : 2 932 Kbps
Width : 804 pixels
Height : 584 pixels
Display aspect ratio : 1.377
Frame rate : 24.000 fps
Color space : YUV
Chroma subsampling : 4:2:0
Bit depth : 8 bits
Scan type : Progressive
Bits/(Pixel*Frame) : 0.260
Stream size : 1.84 GiB (85%)
Title : V.Boi.Idut.Odni.Stariki.1973.BDRip-AVC.All.Fillms
Writing library : x264 core 115 r1936 7a9e08d
Encoding settings : cabac=1 / ref=11 / deblock=1:-2:-1 / analyse=0x3:0x113 / me=umh / subme=10 / psy=1 / psy_rd=0.85:0.05 / mixed_ref=1 / me_range=32 /
chroma_me=1 / trellis=2 / 8x8dct=1 / cqm=0 / deadzone=21,11 / fast_pskip=1 / chroma_qp_offset=-3 / threads=9 / sliced_threads=0 / nr=0 / decimate=1 / interlaced=0 /
bluray_compat=0 / constrained_intra=0 / bframes=10 / b_pyramid=2 / b_adapt=2 / b_bias=0 / direct=3 / weightb=1 / open_gop=0 / weightp=2 / keyint=250 / keyint_min=24 /
scenecut=40 / intra_refresh=0 / rc=2pass / mbtree=0 / bitrate=2932 / ratetol=1.0 / qcomp=0.60 / qpmin=0 / qpmax=69 / qpstep=4 / cplxblur=20.0 / qblur=0.5 / ip_ratio=1.35 / pb_ratio=1.25 / aq=2:1.00
Language : Russian
Color primaries : BT.709-5, BT.1361, IEC 61966-2-4, SMPTE RP177
Transfer characteristics : BT.709-5, BT.1361
Matrix coefficients : BT.709-5, BT.1361, IEC 61966-2-4 709, SMPTE RP177

Audio
ID : 2
Format : AC-3
Format/Info : Audio Coding 3
Mode extension : CM (complete main)
Codec ID : A_AC3
Duration : 1h 31mn
Bit rate mode : Constant
Bit rate : 448 Kbps
Channel(s) : 6 channels
Channel positions : Front: L C R, Side: L R, LFE
Sampling rate : 48.0 KHz
Bit depth : 16 bits
Compression mode : Lossy
Stream size : 294 MiB (13%)
Title : Russian
Language : Russian



   Похожие торренты   Торрент   Размер 
В этой теме нет новых непрочитанных сообщений. В бой идут одни «старики» (1973) BDRip от MediaClub | КПК | Цветная версия

409 | 26

413.87 МБ

В этой теме нет новых непрочитанных сообщений. В бой идут одни «старики» (1973) BDRip от HQCLUB | Цветная версия

1153 | 56

1.45 ГБ

В этой теме нет новых непрочитанных сообщений. В бой идут одни «старики» (1973) BDRip 1080p | Цветная версия

85 | 13

10.09 ГБ

В этой теме нет новых непрочитанных сообщений. В бой идут одни «старики» (1973) BDRip (720p) от ExKinoRay | Цветная версия

334 | 19

3.69 ГБ

В этой теме нет новых непрочитанных сообщений. В бой идут одни «старики» (1973) BDRip от KinoRay & Sheikn | Цветная версия

310 | 15

703.24 МБ

В этой теме нет новых непрочитанных сообщений. В бой идут одни «старики» (1973) BDRip 720p от NOLIMITS-TEAM | Цветная версия

74 | 6

2.2 ГБ

В этой теме нет новых непрочитанных сообщений. В бой идут одни «старики» (1973) HDRip от Scarabey | Цветная версия

1582 | 130

1.41 ГБ




Вы не можете начинать темы
Вы не можете отвечать на сообщения
Вы не можете редактировать свои сообщения
Вы не можете удалять свои сообщения
Вы не можете добавлять вложения

Перейти:  
 Вход
ppkBB3cker v.2 © 2008-2014 @ PPK
[ Time : 0.466s | 15 Queries | GZIP : Off ]

cron