img image001 image001 image001 image001 image001 image001 image001 image001 image001 image001 image001 image001 image001 image001 image001

Planets Sun Sun Sun
Статистика раздачи
Автор: Снежана | Размер: 4.74 ГБ | Добавлен: 24 июл 2013
Раздают: 6    Качают: 3
Скачать торрент
Скачать торрент
Описание торрента

СообщениеДобавлено: 24 июл 2013 

#77



Оригинальное название: Брестская крепость

Год выхода: 2010
Жанр: Драма, военный
Режиссер: Александр Котт
В ролях: Евгений Цыганов, Андрей Мерзликин, Павел Деревянко, Александр Коршунов, Юрий Анпилогов, Кирилл Болтаев, Анатолий Кот, Илья Мозговой, Яна Есипович, Дмитрий Куличков

«Я умираю, но не сдаюсь!»

Сюжет фильма:
Фильм рассказывает о героической обороне Брестской крепости, которая приняла на себя первый удар немецких фашистских захватчиков 22 июня 1941 года. С документальной точностью описываются события, происходившие в первые дни обороны. Фильм рассказывает о главных трёх очагах сопротивления, возглавляемых командиром полка Петром Гавриловым, комиссаром Ефимом Фоминым и начальником 9-й погранзаставы Андреем Кижеватовым.

Продолжительность: 02:18:15

Перевод: Оригинал [Лицензия]
Выпущено: Россия



Качество: BDRip (720p)
Видео: 1920x818, 4 462 Кбит/сек, 24.000 кадр/сек, AVC, x264, 2,35:1, 0.116 Бит/(Пиксели*Кадры)
Аудио: AC-3, 448 Кбит/сек, 6 канала(ов), 48,0 КГц
Размер: 4.74 GB





Релиз Группа | Автор Рипа:



Бюджет Фильма: 225 000 000 руб.
Кассовые сборы: 135 445 415 руб.


В фильме указывается, что майор Гаврилов после освобождения из плена был репрессирован, что, однако, не соответствует действительности.
Полковой комиссар Фомин был расстрелян не в конце июня, а 5 июля, после того как был выдан в плену предателем.
Территориальными подразделениями по борьбе с экономической преступностью МВД Беларуси выявлено около 20 случаев незаконного распространения фильма пиратами [33].

Лейтенант Кижеватов в фильме носит знаки различия старшего лейтенанта (три красных эмалированных квадрата, хотя лейтенанту положены два).

Съемки фильма происходили на территории Брестской крепости, на земле, которая помнит события, описанные в картине. По проекту Алима Матвейчука были построены уникальные декорации, копии построек довоенного времени и точная копия Холмских ворот. В последний день съемок (14 октября) утром выпал снег, так был снят последний кадр «Бресткой крепости» (с него начинается фильм), через 2 часа от сугробов не осталось и следа.

Во время съемок были найдены останки советских солдат, впоследствии перезахороненные на мемориальном кладбище Брестской крепости. Некоторые участки земли были разминированы для съемок взрывов, обнаружены неразорвавшиеся гранаты и снаряды, немецкая резиновая лодка.

Большинство немецких солдат в фильме вооружены винтовками Mauser 98k (что исторически верно), однако винтовки укомплектованы несоответствующими им ремнями (вероятно от винтовки Мосина).
В музее Мемориального комплекса «Брестская крепость-герой» теперь есть экспозиция посвященная съемкам фильма, среди прочего там находится форма Кижеватова, в которой снимался Андрей Мерзликин, и пострадавшая от взрыва гранаты труба Сашки Акимова (Алексей Копашов).
В фильме присутствует фрагмент фильма Григория Александрова «Весёлые ребята» (восстановленная версия 1978 года).

General
Complete name : D:DCBrestskaya.Krepost.2010.BDRip.1080p.[nolimits-team].mkv
Format : Matroska
File size : 4.74 GiB
Duration : 2h 18mn
Overall bit rate : 4 909 Kbps
Movie name : Rip by victordan 95
Encoded date : UTC 2011-05-09 08:03:05
Writing application : mkvmerge v3.2.0 ('Beginnings') built on Feb 12 2010 16:46:17
Writing library : libebml v0.7.9 + libmatroska v0.8.1
Cover : Yes

Video
ID : 1
Format : AVC
Format/Info : Advanced Video Codec
Format profile : High@L4.1
Format settings, CABAC : Yes
Format settings, ReFrames : 3 frames
Muxing mode : Container profile=Unknown@4.1
Codec ID : V_MPEG4/ISO/AVC
Duration : 2h 18mn
Bit rate : 4 363 Kbps
Nominal bit rate : 4 462 Kbps
Width : 1 920 pixels
Height : 818 pixels
Display aspect ratio : 2.35:1
Original display aspect ratio : 2.35:1
Frame rate : 24.000 fps
Resolution : 8 bits
Colorimetry : 4:2:0
Scan type : Progressive
Bits/(Pixel*Frame) : 0.116
Stream size : 4.21 GiB (89%)
Writing library : x264 core 115 r1937 aa21558
Encoding settings : cabac=1 / ref=4 / deblock=1:0:0 / analyse=0x3:0x113 / me=umh / subme=8 / psy=1 / psy_rd=1.00:0.00 / mixed_ref=1 / me_range=16 / chroma_me=1 / trellis=1 / 8x8dct=1 / cqm=0 / deadzone=21,11 / fast_pskip=1 / chroma_qp_offset=-2 / threads=3 / sliced_threads=0 / slices=4 / nr=0 / decimate=1 / interlaced=0 / bluray_compat=1 / constrained_intra=0 / bframes=3 / b_pyramid=1 / b_adapt=1 / b_bias=0 / direct=3 / weightb=1 / open_gop=0 / weightp=1 / keyint=24 / keyint_min=1 / scenecut=40 / intra_refresh=0 / rc_lookahead=24 / rc=2pass / mbtree=1 / bitrate=4462 / ratetol=1.0 / qcomp=0.60 / qpmin=0 / qpmax=69 / qpstep=4 / cplxblur=20.0 / qblur=0.5 / vbv_maxrate=15000 / vbv_bufsize=15000 / nal_hrd=vbr / ip_ratio=1.10 / aq=1:1.00
Language : English

Audio
ID : 2
Format : AC-3
Format/Info : Audio Coding 3
Codec ID : A_AC3
Duration : 2h 18mn
Bit rate mode : Constant
Bit rate : 448 Kbps
Channel(s) : 6 channels
Channel positions : Front: L C R, Surround: L R, LFE
Sampling rate : 48.0 KHz
Stream size : 443 MiB (9%)
Title : 48 kHz, AC-3, 5.1 ch, 448 kbps
Language : Russian






   Похожие торренты   Торрент   Размер 
В этой теме нет новых непрочитанных сообщений. Брестская крепость (2010) BDRip 720p от NOLIMITS-TEAM

36 | 7

2.39 ГБ

В этой теме нет новых непрочитанных сообщений. Брестская крепость (2010) BDRip 1080p

376 | 14

4.36 ГБ

В этой теме нет новых непрочитанных сообщений. Брестская крепость (2010) BDRip 1080p

25 | 16

14.37 ГБ

В этой теме нет новых непрочитанных сообщений. Брестская крепость (2010) BDRip 1080p

214 | 21

7.76 ГБ

В этой теме нет новых непрочитанных сообщений. Брестская крепость (2010) BDRemux 1080p от ExKinoRay

56 | 13

20.41 ГБ

В этой теме нет новых непрочитанных сообщений. Брестская крепость (2010) BDRip от MediaClub | КПК

58 | 4

739.7 МБ

В этой теме нет новых непрочитанных сообщений. Брестская крепость (2010) BDRip-AVC | iPad

85 | 5

2.39 ГБ




Вы не можете начинать темы
Вы не можете отвечать на сообщения
Вы не можете редактировать свои сообщения
Вы не можете удалять свои сообщения
Вы не можете добавлять вложения

Перейти:  
Для Мосгорсуда, Роскомнадзора и рекламодателей: mosgorsud-torrent[собачка]yandex.ru
 Вход
ppkBB3cker v.2 © 2008-2014 @ PPK
[ Time : 0.723s | 14 Queries | GZIP : On ]

Торрент трекер RUTOR.IN, Не можете зайти на rutor.org? Какой новый адрес рутор? Какое зеркало рутор? Не работает rutor.org и зеркала? Тогда наш торрент специально для вас. Rutor.in неофициальное зеркало rutor. В случае если у Вас заблокирован rutor или вдруг Вы не можете на него зайти, то Вы без труда сможете скачать бесплатно и без рекламы последние новинки кино, игр, сериалов и прочего у нас, на Rutor.in. Не нужно использовать прокси, чтобы зайти на рутор, достаточно воспользоваться нашим ресурсом. Все новые фильмы, игры, сериалы, книги и музыка за 2013 и 2014 годы через торрент бесплатно. Скачивайте фильмы в хорошем качестве, игры для пк, xbox, playstation без регистрации. У нас вы найдете новые Зарубежные сериалы и Русские сериалы 2013, 2014, 2015 годов. Оставайтесь с нами, качайте любимые фильмы, игры, сериалы, книги и музыку.