img image001 image001 image001 image001 image001 image001 image001 image001 image001 image001 image001 image001 image001 image001 image001

Planets Sun Sun Sun
Статистика раздачи
Автор: Снежана | Размер: 4.24 ГБ | Добавлен: 24 июл 2013
Раздают: 33    Качают: 6
Скачать торрент
Скачать торрент
Описание торрента

СообщениеДобавлено: 24 июл 2013 

#77

Информация о фильме
Название: Выкрутасы
Год выхода: 2011
Жанр: мелодрама, комедия, семейный, спорт
Режиссер: Леван Габриадзе
В ролях: Константин Хабенский, Милла Йовович, Иван Ургант, Сергей Гармаш, Владимир Меньшов, Ольга Тумайкина, Галина Логинова, Сергей Селин, Сергей Шеховцов, Александр Кержаков

О фильме:
Слава Колотилов, простой школьный учитель из сонного приморского городка с небанальным названием «Пальчики», приехал покорять Москву с рукописью романа в руках, а покорил... красавицу Надю. Уже близится свадьба, ресторан заказан и гости приглашены, но цепкие Пальчики не дают Славе вырваться к суженой, подстраивая череду «непреодолимых обстоятельств». Вот и приходится Славе выкручиваться, рассказывая Наде по телефону небылицы о страшных происшествиях и катастрофах. А в далёкой Москве в это время Надя отбивает атаки своего бывшего ухажера Дани, готового пойти на любые выкрутасы, лишь бы вернуть себе невесту...

Страна: Россия
Продолжительность: 01:40:48
Перевод: Оригинал

Файл
Кодек: x.264
Качество: BDRip 1080p
Видео: 5808 kb/s, 1920x816, 23,976 fps
Звук: AC3, 448 kb/s (6Ch)
Субтитры: нет
Сохранены оригинальные чаптеры Blu-Ray



Релиз от:

General
Format : Matroska
File size : 4.24 GiB
Duration : 1h 40mn
Overall bit rate : 6 016 Kbps
Movie name : Выкрутасы (2011) BDRip 1080p-Rip by Neofilm for Neoclub.net
Encoded date : UTC 2011-05-15 06:05:03
Writing application : mkvmerge v4.7.0 ('Just Like You Imagined') сборка от Apr 21 2011 01:13:14
Writing library : libebml v1.2.0 + libmatroska v1.1.0

Video
ID : 1
Format : AVC
Format/Info : Advanced Video Codec
Format profile : High@L4.1
Format settings, CABAC : Yes
Format settings, ReFrames : 4 frames
Codec ID : V_MPEG4/ISO/AVC
Duration : 1h 40mn
Bit rate : 5 448 Kbps
Nominal bit rate : 5 808 Kbps
Width : 1 920 pixels
Height : 816 pixels
Display aspect ratio : 2.35:1
Frame rate : 23.976 fps
Color space : YUV
Chroma subsampling : 4:2:0
Bit depth : 8 bits
Scan type : Progressive
Bits/(Pixel*Frame) : 0.145
Stream size : 3.84 GiB (91%)
Title : Выкрутасы (2011)
Writing library : x264 core 114 r1924 08d04a4
Encoding settings : cabac=1 / ref=4 / deblock=1:-3:-3 / analyse=0x3:0x113 / me=umh / subme=9 / psy=1 / psy_rd=1.04:0.04 / mixed_ref=1 / me_range=32 / chroma_me=1 / trellis=2 / 8x8dct=1 / cqm=0 / deadzone=21,11 / fast_pskip=0 / chroma_qp_offset=-3 / threads=6 / sliced_threads=0 / nr=0 / decimate=0 / interlaced=0 / constrained_intra=0 / bframes=2 / b_pyramid=2 / b_adapt=2 / b_bias=0 / direct=3 / weightb=1 / open_gop=0 / weightp=2 / keyint=250 / keyint_min=23 / scenecut=40 / intra_refresh=0 / rc_lookahead=40 / rc=abr / mbtree=1 / bitrate=5808 / ratetol=1.3 / qcomp=0.60 / qpmin=10 / qpmax=51 / qpstep=4 / vbv_maxrate=40000 / vbv_bufsize=40000 / nal_hrd=none / ip_ratio=1.40 / aq=1:1.00
Language : Russian

Audio
ID : 2
Format : AC-3
Format/Info : Audio Coding 3
Mode extension : CM (complete main)
Codec ID : A_AC3
Duration : 1h 40mn
Bit rate mode : Constant
Bit rate : 448 Kbps
Channel(s) : 6 channels
Channel positions : Front: L C R, Side: L R, LFE
Sampling rate : 48.0 KHz
Bit depth : 16 bits
Compression mode : Lossy
Stream size : 323 MiB (7%)
Title : Оригинал
Language : Russian

Menu
00:00:00.000 : en:Chapter 00
00:04:45.201 : en:Chapter 01
00:10:52.401 : en:Chapter 02
00:15:59.041 : en:Chapter 03
00:21:45.012 : en:Chapter 04
00:26:23.415 : en:Chapter 05
00:33:21.416 : en:Chapter 06
00:38:31.976 : en:Chapter 07
00:46:34.917 : en:Chapter 08
00:51:43.600 : en:Chapter 09
00:58:07.150 : en:Chapter 10
01:02:06.597 : en:Chapter 11
01:09:24.994 : en:Chapter 12
01:15:02.873 : en:Chapter 13
01:20:04.841 : en:Chapter 14
01:25:19.697 : en:Chapter 15
01:29:35.453 : en:Chapter 16
01:34:11.771 : en:Chapter 17



   Похожие торренты   Торрент   Размер 
В этой теме нет новых непрочитанных сообщений. Выкрутасы (2011) BD Remux от RG Neofilm

13 | 3

14.89 ГБ

В этой теме нет новых непрочитанных сообщений. Выкрутасы (2011) BDRip 1080p от NOLIMITS-TEAM

15 | 6

4.57 ГБ

В этой теме нет новых непрочитанных сообщений. Пирамммида (2011) BDRip 1080p Rip by Neofilm

95 | 12

4.31 ГБ

В этой теме нет новых непрочитанных сообщений. Без компромиссов / Blitz (2011) BDRip 1080p Rip by Neofilm

196 | 13

4.37 ГБ

В этой теме нет новых непрочитанных сообщений. Форсаж 5 / Fast Five (2011) BDRip 1080p от Neofilm

61 | 15

7.75 ГБ

В этой теме нет новых непрочитанных сообщений. Я – Четвертый / I Am Number Four (2011) BDRip 1080p Rip by Neofilm

5 | 4

7.54 ГБ

В этой теме нет новых непрочитанных сообщений. Кот в сапогах / Puss in Boots (2011) BDRip 1080p от Neofilm

8 | 3

2.22 ГБ




Вы не можете начинать темы
Вы не можете отвечать на сообщения
Вы не можете редактировать свои сообщения
Вы не можете удалять свои сообщения
Вы не можете добавлять вложения

Перейти:  
Для Мосгорсуда, Роскомнадзора и рекламодателей: mosgorsud-torrent[собачка]yandex.ru
 Вход
ppkBB3cker v.2 © 2008-2014 @ PPK
[ Time : 0.043s | 14 Queries | GZIP : Off ]

Торрент трекер RUTOR.IN, Не можете зайти на rutor.org? Какой новый адрес рутор? Какое зеркало рутор? Не работает rutor.org и зеркала? Тогда наш торрент специально для вас. Rutor.in неофициальное зеркало rutor. В случае если у Вас заблокирован rutor или вдруг Вы не можете на него зайти, то Вы без труда сможете скачать бесплатно и без рекламы последние новинки кино, игр, сериалов и прочего у нас, на Rutor.in. Не нужно использовать прокси, чтобы зайти на рутор, достаточно воспользоваться нашим ресурсом. Все новые фильмы, игры, сериалы, книги и музыка за 2013 и 2014 годы через торрент бесплатно. Скачивайте фильмы в хорошем качестве, игры для пк, xbox, playstation без регистрации. У нас вы найдете новые Зарубежные сериалы и Русские сериалы 2013, 2014, 2015 годов. Оставайтесь с нами, качайте любимые фильмы, игры, сериалы, книги и музыку.