img image001 image001 image001 image001 image001 image001 image001 image001 image001 image001 image001 image001 image001 image001 image001

Planets Sun Sun Sun
Статистика раздачи
Автор: Снежана | Размер: 4.36 ГБ | Добавлен: 24 июл 2013
Раздают: 7    Качают: 3
Скачать торрент
Скачать торрент
Описание торрента

СообщениеДобавлено: 24 июл 2013 

#77

Страна: Россия, Германия, Украина
Студия: Bavaria Film, Нон-стоп Продакшн, Sota Cinema Group
Жанр: драма
Год выпуска: 2011
Мировая премьера: 14 февраля 2011
Российская премьера: 24 марта 2011, «Кино без границ»
Дата выхода DVD: 12 мая 2011, «Мистерия Звука»
Продолжительность: 01:34:49
Перевод: Оригинал [Лицензия]
Cубтитры: нет
Оригинальная аудиодорожка: русский
Режиссер: Александр Миндадзе / Aleksandr Mindadze
В ролях: Антон Шагин, Светлана Смирнова-Марцинкевич, Станислав Рядинский, Вячеслав Петкун, Сергей Громов, Алексей Демидов, Василий Гузов
Описание: 26 апреля 1986-го года — первый день после аварии на Чернобыльской АЭС. Суббота «незнания». Суббота, когда жизнь нельзя отменить, когда девушки надевают выходные туфли на каблуках — потому что суббота — выходной день. События фильма разворачиваются в первые 24 часа с момента аварии. Главный герой картины становится невольным свидетелем катастрофы. Случайно он узнает всю правду о трагедии и оказывается перед моральным выбором: спасти людей или выполнить приказ «сверху» и не сеять панику.
Бонусы: Смотрите на DVD и Blu-rau
Качество: DVD5 R5

Фаил:
Видео
Идентификатор : 224 (0xE0)
Формат : MPEG Video
Версия формата : Version 2
Профиль формата : Main@Main
Параметр BVOP формата : Да
Параметр матрицы формата : По умолчанию
Продолжительность : 26 м.
Вид битрейта : Переменный
Битрейт : 4862 Кбит/сек
Номинальный битрейт : 8500 Кбит/сек
Ширина : 720 пикс.
Высота : 576 пикс.
Соотношение сторон : 16:9
Частота кадров : 25,000 кадр/сек
Стандарт вещания : PAL
Цветовое пространство : YUV
Подвыборка цветности : 4:2:0
Битовая глубина : 8 бит
Тип развёртки : Чересстрочная
Порядок развёртки : Верхнее поле первое
Метод сжатия : С потерями
Бит/(Пиксели*Кадры) : 0.469
Размер потока : 919 Мбайт (90%)

Аудио
Идентификатор : 189 (0xBD)-128 (0x80)
Формат : AC-3
Формат/Информация : Audio Coding 3
Расширение режима : CM (complete main)
Режим смешивания : DVD-Video
Продолжительность : 26 м.
Вид битрейта : Постоянный
Битрейт : 448 Кбит/сек
Каналы : 6 каналов
Расположение каналов : Front: L C R, Side: L R, LFE
Частота : 48,0 КГц
Битовая глубина : 16 бит
Метод сжатия : С потерями
Размер потока : 84,6 Мбайт (8%)

Формат: DVD-Video
Видео кодек: MPEG2
Аудио кодек: AC3
Видео: PAL 16:9 (720x576(0.564)) MPEG Video,25,000 кадр/сек, 5848 Кбит/сек
Аудио: Russian (Dolby AC3, 6 ch) 448 Кбит/сек, 48,0 КГц




   Похожие торренты   Торрент   Размер 
В этой теме нет новых непрочитанных сообщений. В субботу (2011) DVDRip | КПК

0 | 2

446.97 МБ

В этой теме нет новых непрочитанных сообщений. В субботу (2011) DVDRip

22 | 3

1.37 ГБ

В этой теме нет новых непрочитанных сообщений. В субботу (2011) DVDRip

445 | 2

1.45 ГБ

В этой теме нет новых непрочитанных сообщений. В субботу (2011) DVDRip

5 | 4

700.15 МБ

В этой теме нет новых непрочитанных сообщений. 11-11-11 / 11-11-11 (2011) DVD5 | Лицензия

2 | 1

3.82 ГБ

В этой теме нет новых непрочитанных сообщений. Беглецы (2011) DVD5 | Лицензия

8 | 3

3.81 ГБ

В этой теме нет новых непрочитанных сообщений. Ангел (2011) DVD5 | Лицензия

0 | 2

4.07 ГБ




Вы не можете начинать темы
Вы не можете отвечать на сообщения
Вы не можете редактировать свои сообщения
Вы не можете удалять свои сообщения
Вы не можете добавлять вложения

Перейти:  
Для Мосгорсуда, Роскомнадзора и рекламодателей: mosgorsud-torrent[собачка]yandex.ru
 Вход
ppkBB3cker v.2 © 2008-2014 @ PPK
[ Time : 0.040s | 15 Queries | GZIP : Off ]

Торрент трекер RUTOR.IN, Не можете зайти на rutor.org? Какой новый адрес рутор? Какое зеркало рутор? Не работает rutor.org и зеркала? Тогда наш торрент специально для вас. Rutor.in неофициальное зеркало rutor. В случае если у Вас заблокирован rutor или вдруг Вы не можете на него зайти, то Вы без труда сможете скачать бесплатно и без рекламы последние новинки кино, игр, сериалов и прочего у нас, на Rutor.in. Не нужно использовать прокси, чтобы зайти на рутор, достаточно воспользоваться нашим ресурсом. Все новые фильмы, игры, сериалы, книги и музыка за 2013 и 2014 годы через торрент бесплатно. Скачивайте фильмы в хорошем качестве, игры для пк, xbox, playstation без регистрации. У нас вы найдете новые Зарубежные сериалы и Русские сериалы 2013, 2014, 2015 годов. Оставайтесь с нами, качайте любимые фильмы, игры, сериалы, книги и музыку.