img image001 image001 image001 image001 image001 image001 image001 image001 image001 image001 image001 image001 image001 image001 image001

Planets Sun Sun Sun
Статистика раздачи
Автор: Снежана | Размер: 5.59 ГБ | Добавлен: 24 июл 2013
Раздают: 25    Качают: 8
Скачать торрент
Скачать торрент
Описание торрента

СообщениеДобавлено: 24 июл 2013 

[imgright]http://i14.fastpic.ru/big/2011/0222/a3/56121f060563f0f6d5964fab5da20ca3.jpg" />

Жанр: Боевик, Драма, Война.
Год: 2010.
Студия: Belarusfilm, Central Partnership.
Страна: Белорусь, Россия.
Режиссер: Александр Котт /Alexander Kott/.
В ролях: Евгений Цыганов /Evgeniy Tsyganov/, Андрей Мерзликин /Andrey Merzlikin/, Павел Деревянко /Pavel Derevyanko/, Александр Коршунов /Aleksandr Korshunov/, Юрий Анпилогов /Yuri Anpilogov/, Илья Мозговой /Ilya Mozgovoi/, Анатолий Кот /Anatoly Kot/.

Описание: Фильм рассказывает о героической обороне Брестской крепости, которая приняла на себя первый удар фашистских захватчиков 22 июня 1941 года.
С документальной точностью описаны события, происходившие в первые дни обороны. Много лет спустя, ветеран Великой Отечественной войны Александр Акимов снова и снова возвращается в своих воспоминаниях в то время, когда он - пятнадцатилетний подросток. Саша Акимов, беззаветно влюбленный в девушку Веру, оказался в самом центре кровавых событий войны.
Три главных очага сопротивления, возглавляемых командиром полка Петром Михайловичем Гавриловым (Александр Коршунов), комиссаром Ефимом Моисеевичем Фоминым (Павел Деревянко) и начальником 9-й погранзаставы Андреем Митрофановичем Кижеватовым (Андрей Мерзликин) связаны одной линией - историей Сашки Акимова (Алеша Копашов). Именно его глазами мы видим события, происходящие в картине. Прототипом Сашки был пятнадцатилетний Петя Клыпа, один из немногих выживших защитников Брестской крепости.
"Брестская крепость" фильм не только о войне, человеческие отношения главных героев являются очень важной его частью. Главная же идея картины лучше всего сформулирована в надписи, обнаруженной на стене одного из казематов: "Умираю, но не сдаюсь…"

*********** Brestskaya krepost (2010) ***********

Release Date: 16.05.2011

Release Info:
File Name .....: Brestskaya.Krepost.2010.RUS.BDRip.720p.h264.AC3.-HQ-ViDEO.mkv
Author ........: GYN

Runtime .......: 02:18:15 min
Video Format ..: MKV, H.264 codec
Video Bitrate .: 5 225 kbps
Bits per Pixel : 0.313 bit/pixel
Resolution ....: 1 280 x 544
Aspect Ratio ..: 2.35:1
Framerate .....: 24.000 fps

Audio First....: Russian AC3 Dolby Digital; 448.00 kbps; 5.1 Ch; 48 kHz
Subtitle.......: Russian.

File Size .....: 5.59 GB
Source.........: Blu-ray Disc



General

Complete name : Brestskaya.Krepost.2010.RUS.BDRip.720p.h264.AC3.-HQ-ViDEO.mkv
Format : Matroska
File size : 5.59 GiB
Duration : 2h 18mn
Overall bit rate : 5 788 Kbps
Movie name : Брестская крепость / Brestskaya Krepost (2010)
Encoded date : UTC 2011-05-16 06:00:08
Writing application : mkvmerge v3.3.0 ('Language') built on Mar 24 2010 14:59:24
Writing library : libebml v0.8.0 + libmatroska v0.9.0

Video
ID : 1
Format : AVC
Format/Info : Advanced Video Codec
Format profile : High@L4.1
Format settings, CABAC : Yes
Format settings, ReFrames : 6 frames
Codec ID : V_MPEG4/ISO/AVC
Duration : 2h 18mn
Bit rate mode : Variable
Bit rate : 5 225 Kbps
Width : 1 280 pixels
Height : 544 pixels
Display aspect ratio : 2.35:1
Frame rate : 24.000 fps
Color space : YUV
Chroma subsampling : 4:2:0
Bit depth : 8 bits
Scan type : Progressive
Bits/(Pixel*Frame) : 0.313
Stream size : 5.05 GiB (90%)
Title : Encoded by GYN

Audio
ID : 2
Format : AC-3
Format/Info : Audio Coding 3
Mode extension : CM (complete main)
Codec ID : A_AC3
Duration : 2h 18mn
Bit rate mode : Constant
Bit rate : 448 Kbps
Channel(s) : 6 channels
Channel positions : Front: L C R, Side: L R, LFE
Sampling rate : 48.0 KHz
Bit depth : 16 bits
Compression mode : Lossy
Stream size : 443 MiB (8%)
Title : Original
Language : Russian

Text
ID : 3
Format : UTF-8
Codec ID : S_TEXT/UTF8
Codec ID/Info : UTF-8 Plain Text
Language : Russian


Язык: Русский.

Субтитры: Русские.

Субтитры: Русские, Английские (полные, форсированные). СПАСИБО Zealot, Aw34, Katia Kutyavina, vinalord

Скриншоты для оценки качества:




Релиз:


   Похожие торренты   Торрент   Размер 
В этой теме нет новых непрочитанных сообщений. Брестская крепость / Brestskaya Krepost (2010) BDRip от HQ-ViDEO

3 | 2

2.18 ГБ

В этой теме нет новых непрочитанных сообщений. Брестская крепость (2010) BDRip 720p от NOLIMITS-TEAM

36 | 7

2.39 ГБ

В этой теме нет новых непрочитанных сообщений. Брестская крепость (2010) BDRip от HQCLUB

34 | 7

2.18 ГБ

В этой теме нет новых непрочитанных сообщений. Брестская крепость (2010) BDRip от MediaClub | КПК

58 | 4

739.7 МБ

В этой теме нет новых непрочитанных сообщений. Брестская крепость (2010) BDRip 1080p

25 | 16

14.37 ГБ

В этой теме нет новых непрочитанных сообщений. Брестская крепость (2010) BDRip-AVC | iPad

85 | 5

2.39 ГБ

В этой теме нет новых непрочитанных сообщений. Брестская крепость (2010) BDRip 1080p

214 | 21

7.76 ГБ




Вы не можете начинать темы
Вы не можете отвечать на сообщения
Вы не можете редактировать свои сообщения
Вы не можете удалять свои сообщения
Вы не можете добавлять вложения

Перейти:  
Для Мосгорсуда, Роскомнадзора и рекламодателей: mosgorsud-torrent[собачка]yandex.ru
 Вход
ppkBB3cker v.2 © 2008-2014 @ PPK
[ Time : 0.627s | 16 Queries | GZIP : Off ]

Торрент трекер RUTOR.IN, Не можете зайти на rutor.org? Какой новый адрес рутор? Какое зеркало рутор? Не работает rutor.org и зеркала? Тогда наш торрент специально для вас. Rutor.in неофициальное зеркало rutor. В случае если у Вас заблокирован rutor или вдруг Вы не можете на него зайти, то Вы без труда сможете скачать бесплатно и без рекламы последние новинки кино, игр, сериалов и прочего у нас, на Rutor.in. Не нужно использовать прокси, чтобы зайти на рутор, достаточно воспользоваться нашим ресурсом. Все новые фильмы, игры, сериалы, книги и музыка за 2013 и 2014 годы через торрент бесплатно. Скачивайте фильмы в хорошем качестве, игры для пк, xbox, playstation без регистрации. У нас вы найдете новые Зарубежные сериалы и Русские сериалы 2013, 2014, 2015 годов. Оставайтесь с нами, качайте любимые фильмы, игры, сериалы, книги и музыку.
cron