img image001 image001 image001 image001 image001 image001 image001 image001 image001 image001 image001 image001 image001 image001 image001

Planets Sun Sun Sun
Статистика раздачи
Автор: Снежана | Размер: 4.16 ГБ | Добавлен: 24 июл 2013
Раздают: 0    Качают: 2
Скачать торрент
Скачать торрент
Описание торрента

СообщениеДобавлено: 24 июл 2013 

#77

Год выпуска: 2009
Жанр: военная драма
Продолжительность: 01:28:46
Режиссер: Ольга Жулина
В ролях: Нина Лощинина, Юрий Колокольников, Андрей Панин, Дарья Михайлова, Федор Добронравов, Елена Дубровская
Описание: Фильм по повести Василия Быкова " Пойти и не вернуться ".
Они полюбили друг друга, но на их пути стоит война. Линия фронта проходит через душу каждого и переступить ее очень просто, а, переступив, ты начинаешь войну с теми, кто рядом. Судьбы разных людей проходят перед глазами, и каждый из них делает свой выбор. Выжить и предать - умереть, но не предавать. Личное счастье или долг перед Родиной? В экстремальной ситуации войны самые важные события в жизни герои должны прожить в считанные дни, и обстоятельства не предоставляют иного выбора, когда от любви до смерти один шаг.
Доп. информация: За основу взят DVD9, Удалён DTS звук и дополнительные материалы. Видео без сжатия. Автор рипа - aron.

Файл:
Видео
Идентификатор : 224 (0xE0)
Формат : MPEG Video
Версия формата : Version 2
Профиль формата : Main@Main
Параметр BVOP формата : Да
Параметр матрицы формата : По умолчанию
Параметры GOP формата : M=3, N=12
Продолжительность : 21 м.
Вид битрейта : Переменный
Битрейт : 5998 Кбит/сек
Номинальный битрейт : 8000 Кбит/сек
Ширина : 720 пикс.
Высота : 576 пикс.
Соотношение сторон : 4:3
Частота кадров : 25,000 кадр/сек
Стандарт вещания : PAL
Цветовое пространство : YUV
Подвыборка цветности : 4:2:0
Битовая глубина : 8 бит
Тип развёртки : Чересстрочная
Порядок развёртки : Верхнее поле первое
Метод сжатия : С потерями
Бит/(Пиксели*Кадры) : 0.578
Размер потока : 934 Мбайт (91%)

Аудио
Идентификатор : 189 (0xBD)-128 (0x80)
Формат : AC-3
Формат/Информация : Audio Coding 3
Расширение режима : CM (complete main)
Режим смешивания : DVD-Video
Продолжительность : 21 м.
Вид битрейта : Постоянный
Битрейт : 448 Кбит/сек
Каналы : 6 каналов
Расположение каналов : Front: L C R, Side: L R, LFE
Частота : 48,0 КГц
Битовая глубина : 16 бит
Метод сжатия : С потерями
Задержка видео : -80 мс.
Размер потока : 69,7 Мбайт (7%)

Качество: DVD5
Формат: DVD Video
Видео кодек: MPEG2
Аудио кодек: AC3
Видео: PAL 4:3 (720x576) VBR, Auto Pan&Scan
Аудио: Russian (Dolby AC3, 6 ch)



   Похожие торренты   Торрент   Размер 
В этой теме нет новых непрочитанных сообщений. Обреченные на войну (2009) DVD9

0 | 4

5.12 ГБ

В этой теме нет новых непрочитанных сообщений. Обреченные на войну (2008) DVDRip-AVC

18 | 6

1.34 ГБ

В этой теме нет новых непрочитанных сообщений. Обреченные на войну (2008) DVDRip

75 | 7

691.41 МБ

В этой теме нет новых непрочитанных сообщений. Обреченные на войну (2008) DVDRip от Киномагия

4 | 4

1.37 ГБ

В этой теме нет новых непрочитанных сообщений. Пара гнедых (2009) DVD5 | сжатый

5 | 5

4.16 ГБ

В этой теме нет новых непрочитанных сообщений. Бугай / Boogie, el aceitoso 2D (2009) DVD5 | сжатый

0 | 1

3.8 ГБ

В этой теме нет новых непрочитанных сообщений. Футбольные гладиаторы / Awaydays (2009) DVD5 от Youtracker | P | сжатый

4 | 3

4.37 ГБ




Вы не можете начинать темы
Вы не можете отвечать на сообщения
Вы не можете редактировать свои сообщения
Вы не можете удалять свои сообщения
Вы не можете добавлять вложения

Перейти:  
Для Мосгорсуда, Роскомнадзора и рекламодателей: mosgorsud-torrent[собачка]yandex.ru
 Вход
ppkBB3cker v.2 © 2008-2014 @ PPK
[ Time : 0.020s | 17 Queries | GZIP : Off ]

cron