img image001 image001 image001 image001 image001 image001 image001 image001 image001 image001 image001 image001 image001 image001 image001

Planets Sun Sun Sun
Статистика раздачи
Автор: Снежана | Размер: 4.37 ГБ | Добавлен: 24 июл 2013
Раздают: 37    Качают: 12
Скачать торрент
Скачать торрент
Описание торрента

СообщениеДобавлено: 24 июл 2013 

[imgright]http://i031.radikal.ru/1105/f9/4cf9150cf20f.jpg" />

Жанр: Драма, Комедия, Военный.
Год: 1973.
Студия: Студия Довженко.
Страна: СССР.
Режиссер: Леонид Быков, Евгений Оноприенко, Александр Сацкий.
В ролях: Леонид Быков, Сергей Подгорный, Сергей Иванов, Рустам Сагдуллаев, Евгения Симонова, Ольга Матешко, Владимир Талашко, Алексей Смирнов, Виктор Мирошниченко, Григорий Гладий.

Описание: Эта эскадрилья стала «поющей» — так капитан Титаренко подбирал себе новичков. Его «старикам» было не больше двадцати, но «желторотиков», пополнение из летных училищ ускоренного выпуска, в бой все равно, по возможности, не пускали.

Им еще многое предстояло испытать — и жар боев, и радость первой победы над врагом, и величие братства, скрепленного кровью, и первую любовь, и горечь утраты… И настанет день, когда по команде «в бой идут одни старики» бывшие желторотики бросятся к своим самолетам...

*********** В бой идут одни «старики» (1973) ***********

Release Date: 20.05.2011

Release Info:
File Name .....: V.Boi.Idut.Odni.Stariki.1973.RUS.BDRip.720p.h264.AC3.-HQ-ViDEO.mkv
Author ........: GYN

Runtime .......: 01:31:53 min
Video Format ..: MKV, H.264 codec
Video Bitrate .: 6 228 kbps
Bits per Pixel : 0.363 bit/pixel
Resolution ....: 992 x 720
Aspect Ratio ..: 1.378
Framerate .....: 24.000 fps

Audio First....: Russian AC3 Dolby Digital; 448.00 kbps; 5.1 Ch; 48 kHz
Subtitle.......: Russian, English.

File Size .....: 4.37 GB
Source.........: Blu-ray Disc



General
Complete name : V.Boi.Idut.Odni.Stariki.1973.RUS.BDRip.720p.h264.AC3.-HQ-ViDEO.mkv
Format : Matroska
File size : 4.37 GiB
Duration : 1h 31mn
Overall bit rate : 6 811 Kbps
Movie name : В Бой Идут Одни "Старики" (1973)
Encoded date : UTC 2011-05-20 05:52:29
Writing application : mkvmerge v3.3.0 ('Language') built on Mar 24 2010 14:59:24
Writing library : libebml v0.8.0 + libmatroska v0.9.0

Video
ID : 1
Format : AVC
Format/Info : Advanced Video Codec
Format profile : High@L4.1
Format settings, CABAC : Yes
Format settings, ReFrames : 6 frames
Codec ID : V_MPEG4/ISO/AVC
Duration : 1h 31mn
Bit rate mode : Variable
Bit rate : 6 228 Kbps
Width : 992 pixels
Height : 720 pixels
Display aspect ratio : 1.378
Frame rate : 24.000 fps
Color space : YUV
Chroma subsampling : 4:2:0
Bit depth : 8 bits
Scan type : Progressive
Bits/(Pixel*Frame) : 0.363
Stream size : 4.00 GiB (91%)
Title : Encoded by GYN

Audio
ID : 2
Format : AC-3
Format/Info : Audio Coding 3
Mode extension : CM (complete main)
Codec ID : A_AC3
Duration : 1h 31mn
Bit rate mode : Constant
Bit rate : 448 Kbps
Channel(s) : 6 channels
Channel positions : Front: L C R, Side: L R, LFE
Sampling rate : 48.0 KHz
Bit depth : 16 bits
Compression mode : Lossy
Stream size : 294 MiB (7%)
Title : Original
Language : Russian

Text #1
ID : 3
Format : UTF-8
Codec ID : S_TEXT/UTF8
Codec ID/Info : UTF-8 Plain Text
Language : Russian

Text #2
ID : 4
Format : UTF-8
Codec ID : S_TEXT/UTF8
Codec ID/Info : UTF-8 Plain Text
Language : English


Язык: Русский .

Субтитры: Русские, Английские.

Скриншоты для оценки качества:



Релиз:


   Похожие торренты   Торрент   Размер 
В этой теме нет новых непрочитанных сообщений. В бой идут одни «старики» (1973) BDRip (720p) от ExKinoRay | Цветная версия

334 | 19

3.69 ГБ

В этой теме нет новых непрочитанных сообщений. В бой идут одни «старики» (1973) BDRip 720p от NOLIMITS-TEAM | Цветная версия

74 | 6

2.2 ГБ

В этой теме нет новых непрочитанных сообщений. В бой идут одни «старики» (1973) BDRip от HQ-ViDEO

225 | 53

1.45 ГБ

В этой теме нет новых непрочитанных сообщений. В бой идут одни «старики» (1973) BDRip от HELLYWOOD | Цветной

30 | 3

1.45 ГБ

В этой теме нет новых непрочитанных сообщений. В бой идут одни «старики» (1973) BDRip-AVC | Цветная версия

166 | 9

2.17 ГБ

В этой теме нет новых непрочитанных сообщений. В бой идут одни «старики» (1973) BDRip от HQCLUB | Цветная версия

1153 | 56

1.45 ГБ

В этой теме нет новых непрочитанных сообщений. В бой идут одни «старики» (1973) BDRip 1080p от NOLIMITS-TEAM

18 | 13

4.22 ГБ




Вы не можете начинать темы
Вы не можете отвечать на сообщения
Вы не можете редактировать свои сообщения
Вы не можете удалять свои сообщения
Вы не можете добавлять вложения

Перейти:  
Для Мосгорсуда, Роскомнадзора и рекламодателей: mosgorsud-torrent[собачка]yandex.ru
 Вход
ppkBB3cker v.2 © 2008-2014 @ PPK
[ Time : 0.042s | 14 Queries | GZIP : Off ]

Торрент трекер RUTOR.IN, Не можете зайти на rutor.org? Какой новый адрес рутор? Какое зеркало рутор? Не работает rutor.org и зеркала? Тогда наш торрент специально для вас. Rutor.in неофициальное зеркало rutor. В случае если у Вас заблокирован rutor или вдруг Вы не можете на него зайти, то Вы без труда сможете скачать бесплатно и без рекламы последние новинки кино, игр, сериалов и прочего у нас, на Rutor.in. Не нужно использовать прокси, чтобы зайти на рутор, достаточно воспользоваться нашим ресурсом. Все новые фильмы, игры, сериалы, книги и музыка за 2013 и 2014 годы через торрент бесплатно. Скачивайте фильмы в хорошем качестве, игры для пк, xbox, playstation без регистрации. У нас вы найдете новые Зарубежные сериалы и Русские сериалы 2013, 2014, 2015 годов. Оставайтесь с нами, качайте любимые фильмы, игры, сериалы, книги и музыку.