img image001 image001 image001 image001 image001 image001 image001 image001 image001 image001 image001 image001 image001 image001 image001

Planets Sun Sun Sun
Статистика раздачи
Автор: Снежана | Размер: 2.27 ГБ | Добавлен: 24 июл 2013
Раздают: 0    Качают: 3
Скачать торрент
Скачать торрент
Описание торрента

СообщениеДобавлено: 24 июл 2013 

#77



Оригинальное название: Ключ Саламандры

Год выхода: 2011
Жанр: Боевик, приключения
Режиссер: Александр Якимчук
В ролях: Федор Емельяненко, Говит Ваттанакул, Рутгер Хауэр, Майкл Мэдсен, Бо-сонг Ким, Павел Делонг, Валерий Николаев, Олег Чернов, Алексей Горбунов, Валерий Соловьев

«Завтра может не быть»

Сюжет фильма:
«… Сегодня мы получили бесценный дар — эликсир жизни…» — гласит сенсационное заявление главы корпорации «Фарм-Лайн» в Бангкоке. Чудотворный препарат появился благодаря исследованиям свойств саламандры обновлять клетки… «Самоубийство конгрессмена! Восьмой случай за месяц! Эпидемия самоубийств!», — так звучат заголовки газет. Один из лучших полицейский тайской столицы берется за расследование череды таинственных смертей…

На острове в Юго-Восточной Азии пропала Международная научная экспедиция. Последнее сообщение, полученное от ученых, говорит об угрозе глобальной катастрофы. Спасательная группа находит на острове следы лаборатории, в которой проводили опыты над животными и людьми… Что объединяет все эти события? ? И почему ключ к разгадке надо искать в непроходимых азиатских джунглях…


Продолжительность: 01:39:28

Перевод: Оригинал [Лицензия]
Выпущено: США, Россия, Нидерланды |



Качество: BDRip (720p)
Видео: 1280x544, 2 746 Кбит/сек, 24.000 кадр/сек, AVC, x264, 2,35:1, 0.161 Бит/(Пиксели*Кадры)
Аудио: AC-3, 384 Кбит/сек, 6 канала(ов), 48,0 КГц
Размер: 2.27 GB





Релиз Группа | Автор Рипа:



Бюджет Фильма:$7 000 000
Кассовые сборы:$1 236 597

Фильм снимался преимущественно в Тайланде. За это время съемочной группе пришлось пережить тайскую революцию и загадочную тропическую болезнь. Вирус, которым переболели создатели картины, по симптомам похож на сильную простуду.
General
Complete name : D:DCKljuch.Salamandry.2011.O.BDRip.720p.[nolimits-team].mkv
Format : Matroska
File size : 2.27 GiB
Duration : 1h 43mn
Overall bit rate : 3 130 Kbps
Movie name : Rip by victordan 95
Encoded date : UTC 2011-05-22 06:46:50
Writing application : mkvmerge v3.2.0 ('Beginnings') built on Feb 12 2010 16:46:17
Writing library : libebml v0.7.9 + libmatroska v0.8.1

Video
ID : 1
Format : AVC
Format/Info : Advanced Video Codec
Format profile : High@L4.1
Format settings, CABAC : Yes
Format settings, ReFrames : 5 frames
Muxing mode : Container profile=Unknown@4.1
Codec ID : V_MPEG4/ISO/AVC
Duration : 1h 43mn
Bit rate : 2 683 Kbps
Nominal bit rate : 2 746 Kbps
Width : 1 280 pixels
Height : 544 pixels
Display aspect ratio : 2.35:1
Original display aspect ratio : 2.35:1
Frame rate : 24.000 fps
Resolution : 8 bits
Colorimetry : 4:2:0
Scan type : Progressive
Bits/(Pixel*Frame) : 0.161
Stream size : 1.95 GiB (86%)
Writing library : x264 core 115 r1937 aa21558
Encoding settings : cabac=1 / ref=6 / deblock=1:0:0 / analyse=0x3:0x113 / me=umh / subme=8 / psy=1 / psy_rd=1.00:0.00 / mixed_ref=1 / me_range=16 / chroma_me=1 / trellis=1 / 8x8dct=1 / cqm=0 / deadzone=21,11 / fast_pskip=1 / chroma_qp_offset=-2 / threads=3 / sliced_threads=0 / slices=4 / nr=0 / decimate=1 / interlaced=0 / bluray_compat=1 / constrained_intra=0 / bframes=3 / b_pyramid=1 / b_adapt=1 / b_bias=0 / direct=3 / weightb=1 / open_gop=0 / weightp=1 / keyint=24 / keyint_min=1 / scenecut=40 / intra_refresh=0 / rc_lookahead=24 / rc=2pass / mbtree=1 / bitrate=2746 / ratetol=1.0 / qcomp=0.60 / qpmin=0 / qpmax=69 / qpstep=4 / cplxblur=20.0 / qblur=0.5 / vbv_maxrate=15000 / vbv_bufsize=15000 / nal_hrd=vbr / ip_ratio=1.10 / aq=1:1.00
Language : English

Audio
ID : 2
Format : AC-3
Format/Info : Audio Coding 3
Codec ID : A_AC3
Duration : 1h 43mn
Bit rate mode : Constant
Bit rate : 384 Kbps
Channel(s) : 6 channels
Channel positions : Front: L C R, Surround: L R, LFE
Sampling rate : 48.0 KHz
Stream size : 285 MiB (12%)
Language : Russian






   Похожие торренты   Торрент   Размер 
В этой теме нет новых непрочитанных сообщений. Ключ Саламандры (2011) BDRip 720p

5 | 3

4.37 ГБ

В этой теме нет новых непрочитанных сообщений. Ключ Саламандры (2011) BDRip от HELLYWOOD

4 | 3

2.18 ГБ

В этой теме нет новых непрочитанных сообщений. Ключ Саламандры (2011) BDRip-AVC от potroks

108 | 3

1.45 ГБ

В этой теме нет новых непрочитанных сообщений. Ключ Саламандры (2011) BDRip-AVC от Youtracker

299 | 26

2.18 ГБ

В этой теме нет новых непрочитанных сообщений. Ключ Саламандры (2011) BDRip 1080p

10 | 3

7 ГБ

В этой теме нет новых непрочитанных сообщений. Ключ Саламандры (2011) BDRip от HQCLUB

22 | 5

2 ГБ

В этой теме нет новых непрочитанных сообщений. Ключ Саламандры (2011) Blu-Ray

1 | 6

21.64 ГБ




Вы не можете начинать темы
Вы не можете отвечать на сообщения
Вы не можете редактировать свои сообщения
Вы не можете удалять свои сообщения
Вы не можете добавлять вложения

Перейти:  
Для Мосгорсуда, Роскомнадзора и рекламодателей: mosgorsud-torrent[собачка]yandex.ru
 Вход
ppkBB3cker v.2 © 2008-2014 @ PPK
[ Time : 0.019s | 15 Queries | GZIP : Off ]

Торрент трекер RUTOR.IN, Не можете зайти на rutor.org? Какой новый адрес рутор? Какое зеркало рутор? Не работает rutor.org и зеркала? Тогда наш торрент специально для вас. Rutor.in неофициальное зеркало rutor. В случае если у Вас заблокирован rutor или вдруг Вы не можете на него зайти, то Вы без труда сможете скачать бесплатно и без рекламы последние новинки кино, игр, сериалов и прочего у нас, на Rutor.in. Не нужно использовать прокси, чтобы зайти на рутор, достаточно воспользоваться нашим ресурсом. Все новые фильмы, игры, сериалы, книги и музыка за 2013 и 2014 годы через торрент бесплатно. Скачивайте фильмы в хорошем качестве, игры для пк, xbox, playstation без регистрации. У нас вы найдете новые Зарубежные сериалы и Русские сериалы 2013, 2014, 2015 годов. Оставайтесь с нами, качайте любимые фильмы, игры, сериалы, книги и музыку.