img image001 image001 image001 image001 image001 image001 image001 image001 image001 image001 image001 image001 image001 image001 image001

Planets Sun Sun Sun
Статистика раздачи
Автор: Снежана | Размер: 4.57 ГБ | Добавлен: 24 июл 2013
Раздают: 15    Качают: 6
Скачать торрент
Скачать торрент
Описание торрента

СообщениеДобавлено: 24 июл 2013 

#77



Оригинальное название: Выкрутасы

Год выхода: 2011
Жанр: Мелодрама, комедия, спорт
Режиссер: Леван Габриадзе
В ролях: Милла Йовович, Константин Хабенский, Иван Ургант, Александр Кержаков, Сергей Гармаш, Владимир Меньшов, Ольга Тумайкина, Сергей Селин, Галина Логинова, Татьяна Лютаева и др.

«Почему у этих М всё всегда через Ж?»

Сюжет фильма:
Слава Колотилов, простой школьный учитель из сонного приморского городка с небанальным названием «Пальчики», приехал покорять Москву с рукописью романа в руках, а покорил… красавицу Надю. Уже близится свадьба, ресторан заказан и гости приглашены, но цепкие Пальчики не дают Славе вырваться к суженой, подстраивая череду «непреодолимых обстоятельств». Вот и приходится Славе выкручиваться, рассказывая Наде по телефону небылицы о страшных происшествиях и катастрофах. А в далёкой Москве в это время Надя отбивает атаки своего бывшего ухажера Дани, готового пойти на любые выкрутасы, лишь бы вернуть себе невесту…

Продолжительность: 01:36:41

Перевод: Оригинал [Лицензия]
Выпущено: Россия



Качество: BDRip (1080p)
Видео: 1920х816, 6 108 Кбит/сек, 23,976 кадр/сек, AVC, x264, 2,35:1, 0.159 Бит/(Пиксели*Кадры)
Аудио: AC-3, 384 Кбит/сек, 6 канала(ов), 48,0 КГц
Размер: 4.57 GB





Релиз Группа | Автор Рипа:



Первоначально проект назывался «Колотилов».

Владеющая русским языком Мила Йовович сама озвучила свою роль.

Первые буквы фамилий актеров, сыгравших в фильме главные роли (Хабенский, Ургант, Йовович), образуют нецензурное слово. В одном из трейлеров фильма это показано. По этой причине многие кинотеатры отказались показывать трейлер фильма

Мать героини Милы Йовович Нади играет ее мать в реальной жизни Галина Логинова.

Когда Надя (Мила Йовович) поет песню «Ах эта свадьба, свадьба..», в нескольких кадрах среди музыкантов мелькает Петр Дранга.

Основные сцены (спортивно-пляжно-морские) снимались в г. Ейске Краснодарского края.

В фильме фигурирует больница из телесериала "Интерны".
General
Complete name : D:DCVykrutasy.2011.x264.BDRip.(1080p).[nolimits-team].mkv
Format : Matroska
File size : 4.57 GiB
Duration : 1h 40mn
Overall bit rate : 6 487 Kbps
Movie name : Rip by victordan 95
Encoded date : UTC 2011-05-26 12:37:07
Writing application : mkvmerge v3.2.0 ('Beginnings') built on Feb 12 2010 16:46:17
Writing library : libebml v0.7.9 + libmatroska v0.8.1

Video
ID : 1
Format : AVC
Format/Info : Advanced Video Codec
Format profile : High@L4.1
Format settings, CABAC : Yes
Format settings, ReFrames : 3 frames
Muxing mode : Container profile=Unknown@4.1
Codec ID : V_MPEG4/ISO/AVC
Duration : 1h 40mn
Bit rate : 5 974 Kbps
Nominal bit rate : 6 108 Kbps
Width : 1 920 pixels
Height : 816 pixels
Display aspect ratio : 2.35:1
Original display aspect ratio : 2.35:1
Frame rate : 23.976 fps
Resolution : 8 bits
Colorimetry : 4:2:0
Scan type : Progressive
Bits/(Pixel*Frame) : 0.159
Stream size : 4.20 GiB (92%)
Writing library : x264 core 115 r1937 aa21558
Encoding settings : cabac=1 / ref=4 / deblock=1:0:0 / analyse=0x3:0x113 / me=umh / subme=8 / psy=1 / psy_rd=1.00:0.00 / mixed_ref=1 / me_range=16 / chroma_me=1 / trellis=1 / 8x8dct=1 / cqm=0 / deadzone=21,11 / fast_pskip=1 / chroma_qp_offset=-2 / threads=3 / sliced_threads=0 / slices=4 / nr=0 / decimate=1 / interlaced=0 / bluray_compat=1 / constrained_intra=0 / bframes=3 / b_pyramid=1 / b_adapt=1 / b_bias=0 / direct=3 / weightb=1 / open_gop=0 / weightp=1 / keyint=24 / keyint_min=1 / scenecut=40 / intra_refresh=0 / rc_lookahead=24 / rc=2pass / mbtree=1 / bitrate=6108 / ratetol=1.0 / qcomp=0.60 / qpmin=0 / qpmax=69 / qpstep=4 / cplxblur=20.0 / qblur=0.5 / vbv_maxrate=15000 / vbv_bufsize=15000 / nal_hrd=vbr / ip_ratio=1.10 / aq=1:1.00
Language : English

Audio
ID : 2
Format : AC-3
Format/Info : Audio Coding 3
Codec ID : A_AC3
Duration : 1h 40mn
Bit rate mode : Constant
Bit rate : 384 Kbps
Channel(s) : 6 channels
Channel positions : Front: L C R, Surround: L R, LFE
Sampling rate : 48.0 KHz
Stream size : 277 MiB (6%)
Language : Russian





   Похожие торренты   Торрент   Размер 
В этой теме нет новых непрочитанных сообщений. Выкрутасы (2011) BDRip 720p от NOLIMITS-TEAM

24 | 3

2.31 ГБ

В этой теме нет новых непрочитанных сообщений. Выкрутасы (2011) BDRip 1080p Rip by Neofilm

33 | 6

4.24 ГБ

В этой теме нет новых непрочитанных сообщений. Пожиратели / Intruders (2011) BDRip 1080p от NOLIMITS-TEAM

5 | 4

4.37 ГБ

В этой теме нет новых непрочитанных сообщений. Кориолан / Coriolanus (2011) BDRip 1080p от NOLIMITS-TEAM

0 | 47

4.37 ГБ

В этой теме нет новых непрочитанных сообщений. Грибы 3D / One Way Trip 3D (2011) BDRip 1080p от NOLIMITS-TEAM

7 | 2

4.37 ГБ

В этой теме нет новых непрочитанных сообщений. Дилемма / The Dilemma (2011) BDRip 1080p от NOLIMITS-TEAM

278 | 2

4.36 ГБ

В этой теме нет новых непрочитанных сообщений. Дж. Эдгар / J. Edgar (2011) BDRip 1080p от NOLIMITS-TEAM

0 | 2

6.2 ГБ




Вы не можете начинать темы
Вы не можете отвечать на сообщения
Вы не можете редактировать свои сообщения
Вы не можете удалять свои сообщения
Вы не можете добавлять вложения

Перейти:  
Для Мосгорсуда, Роскомнадзора и рекламодателей: mosgorsud-torrent[собачка]yandex.ru
 Вход
ppkBB3cker v.2 © 2008-2014 @ PPK
[ Time : 2.822s | 13 Queries | GZIP : Off ]
CGP output time : 1.135s | 5 Queries | GZIP : Off

Торрент трекер RUTOR.IN, Не можете зайти на rutor.org? Какой новый адрес рутор? Какое зеркало рутор? Не работает rutor.org и зеркала? Тогда наш торрент специально для вас. Rutor.in неофициальное зеркало rutor. В случае если у Вас заблокирован rutor или вдруг Вы не можете на него зайти, то Вы без труда сможете скачать бесплатно и без рекламы последние новинки кино, игр, сериалов и прочего у нас, на Rutor.in. Не нужно использовать прокси, чтобы зайти на рутор, достаточно воспользоваться нашим ресурсом. Все новые фильмы, игры, сериалы, книги и музыка за 2013 и 2014 годы через торрент бесплатно. Скачивайте фильмы в хорошем качестве, игры для пк, xbox, playstation без регистрации. У нас вы найдете новые Зарубежные сериалы и Русские сериалы 2013, 2014, 2015 годов. Оставайтесь с нами, качайте любимые фильмы, игры, сериалы, книги и музыку.