img image001 image001 image001 image001 image001 image001 image001 image001 image001 image001 image001 image001 image001 image001 image001

Planets Sun Sun Sun
Статистика раздачи
Автор: Снежана | Размер: 1.46 ГБ | Добавлен: 24 июл 2013
Раздают: 111    Качают: 10
Скачать торрент
Скачать торрент
Описание торрента

СообщениеДобавлено: 24 июл 2013 

#77

Меченый атом (1972) DVDRip

Страна: СССР
Жанр: Детектив, шпионский
Год выпуска: 1972
Продолжительность: 01:33:38

Режиссёр: Игорь Гостев

В ролях: Георгий Жжёнов, Владимир Самойлов, Георгий Тараторкин, Михаил Погоржельский, Юрий Толубеев, Владислав Стржельчик, Владимир Покровский, Юлия Диоши, Любовь Соколова, Павел Кормунин, Ира Шабунина, Семён Морозов, Юрий Дедович, Вильям Семёнов, Ролан Быков, Борис Юрченко, Валентина Березуцкая, Валентина Ананьина, Вера Кузнецова, Елена Андерегг, Людмила Старицына, Кира Головко, Павел Кашлаков, Виталий Коняев, Борис Кудрявцев, Владимир Липпарт, Ия Маркс, Станислав Михин, Ирина Мурзаева, Юрий Оськин, Николай Полищук, Любовь Тищенко, Юлия Цоглин, Юлий Бебриш, Сергей Карнович-Валуа, Елена Драпеко, Герман Колушкин, Анна Твеленёва, Николай Сергеев, Сергей Полежаев, Владимир Ферапонтов, Вячеслав Васильев, Г. Борткявичус, Виктория Дубровская, Татьяна Самарина

Описание: Западная разведка засылает Сальге в СССР с целью выявления оборонной мощи страны. Он намерен использовать людей, ставших в годы войны на путь предательства и теперь скрывающихся от правосудия. Один из них — частнопрактикующий врач Раскольцев (бывший каратель), второй — скрывающийся от семьи Шкаликов, о странном исчезновении которого становится известно следственным органам. И теперь вся деятельность Сальге разворачивается под контролем чекистов, снабжающих иностранную агентуру ложными данными…

Доп. информация:

Фильм выпущен на DVD в Чехии, где картина шла в прокате под названием «След ведёт на запад» / «Stopa vede na západ»


Качество видео: DVDRip(Исх. DVD9)
Формат видео: AVI

Видео: 720x352 (2.05:1), 25 fps, XviD build 50 ~1993 kbps avg, 0.31 bit/pixel
Аудио: 48 kHz, AC3 Dolby Digital, 2/0 (L,R) ch, ~224 kbps

http://screenshotcomparison.com/compari ... /picture:2
у конкурента недокроп со всех сторон

File: Mechennyi atom.chopper887.avi
Title: Mechennyi atom.chopper887
Author: chopper887
Genre: Detektiv
Category: Movie
Filesize: 1491.66 Mb ( 1 564 123 136 bytes )
Play length: 01:33:38.399 (140460 frames)
Subtitles: Not Present
Video: 720x352 (2.05:1), 25 fps, XviD build 50 ~1993 kbps avg, 0.31 bit/pixel
Audio: 48 kHz, AC3 Dolby Digital, 2/0 (L,R) ch, ~224 kbps

General
Complete name : L:Mechennyi atom.chopper887.avi
Format : AVI
Format/Info : Audio Video Interleave
File size : 1.46 GiB
Duration : 1h 33mn
Overall bit rate : 2 227 Kbps
Movie name : Mechennyi atom.chopper887
Director : chopper887
Genre : Detektiv
Writing application : VirtualDubMod 1.5.10.2 (build 2540/release)

Video
ID : 0
Format : MPEG-4 Visual
Format profile : AdvancedSimple@L5
Format settings, BVOP : Yes
Format settings, QPel : No
Format settings, GMC : No warppoints
Format settings, Matrix : Custom
Codec ID : XVID
Codec ID/Hint : XviD
Duration : 1h 33mn
Bit rate : 1 993 Kbps
Width : 720 pixels
Height : 352 pixels
Display aspect ratio : 2.045
Frame rate : 25.000 fps
Resolution : 24 bits
Colorimetry : 4:2:0
Scan type : Progressive
Bits/(Pixel*Frame) : 0.315
Stream size : 1.30 GiB (90%)
Writing library : XviD 1.2.1 (UTC 2008-12-04)

Audio
ID : 1
Format : AC-3
Format/Info : Audio Coding 3
Codec ID : 2000
Duration : 1h 33mn
Bit rate mode : Constant
Bit rate : 224 Kbps
Channel(s) : 2 channels
Channel positions : L R
Sampling rate : 48.0 KHz
Video delay : 600ms
Stream size : 150 MiB (10%)
Alignment : Split accross interleaves
Interleave, duration : 40 ms (1.00 video frame)
Interleave, preload duration : 500 ms







   Похожие торренты   Торрент   Размер 
В этой теме нет новых непрочитанных сообщений. Меченый атом (1972) TVRip от Youtracker

12 | 8

1.46 ГБ

В этой теме нет новых непрочитанных сообщений. Меченый / Naznaczony [S01] (2009) DVDRip | P

59 | 50

4.41 ГБ

В этой теме нет новых непрочитанных сообщений. Меченый / Naznaczony [S01] (2009) DVDRip

1 | 7

4.42 ГБ

В этой теме нет новых непрочитанных сообщений. Меченый / Marked Man (1996) DVDRip от NovaLan

1 | 2

1.37 ГБ

В этой теме нет новых непрочитанных сообщений. Атом-76 - Дискография (2009-2012) MP3

112 | 2

186.54 МБ

В этой теме нет новых непрочитанных сообщений. Атом - Электро Активизация (2012) MP3

19 | 3

83.05 МБ

В этой теме нет новых непрочитанных сообщений. Атом-76 - Обратный Отсчет (2014) MP3

320 | 2

141.34 МБ




Вы не можете начинать темы
Вы не можете отвечать на сообщения
Вы не можете редактировать свои сообщения
Вы не можете удалять свои сообщения
Вы не можете добавлять вложения

Перейти:  
Для Мосгорсуда, Роскомнадзора и рекламодателей: mosgorsud-torrent[собачка]yandex.ru
 Вход
ppkBB3cker v.2 © 2008-2014 @ PPK
[ Time : 0.027s | 15 Queries | GZIP : Off ]

Торрент трекер RUTOR.IN, Не можете зайти на rutor.org? Какой новый адрес рутор? Какое зеркало рутор? Не работает rutor.org и зеркала? Тогда наш торрент специально для вас. Rutor.in неофициальное зеркало rutor. В случае если у Вас заблокирован rutor или вдруг Вы не можете на него зайти, то Вы без труда сможете скачать бесплатно и без рекламы последние новинки кино, игр, сериалов и прочего у нас, на Rutor.in. Не нужно использовать прокси, чтобы зайти на рутор, достаточно воспользоваться нашим ресурсом. Все новые фильмы, игры, сериалы, книги и музыка за 2013 и 2014 годы через торрент бесплатно. Скачивайте фильмы в хорошем качестве, игры для пк, xbox, playstation без регистрации. У нас вы найдете новые Зарубежные сериалы и Русские сериалы 2013, 2014, 2015 годов. Оставайтесь с нами, качайте любимые фильмы, игры, сериалы, книги и музыку.