img image001 image001 image001 image001 image001 image001 image001 image001 image001 image001 image001 image001 image001 image001 image001

Planets Sun Sun Sun
Статистика раздачи
Автор: Снежана | Размер: 4.24 ГБ | Добавлен: 24 июл 2013
Раздают: 0    Качают: 73
Скачать торрент
Скачать торрент
Описание торрента

СообщениеДобавлено: 24 июл 2013 

#77

Страна: Казахстан
Студия: 'КАЗАХФИЛЬМ' им. Ш. Айманова
Жанр: Боевик, Детектив
Год выпуска: 2009
Продолжительность: 1:26:00
Перевод: Не требуется
Cубтитры: нет
Оригинальная аудиодорожка: русский
Режиссер: Хуат Ахметов
В ролях: Асанали Ашимов, Александр Феклистов, Талгат Теменов,, Филипп Волошин, Донгджай Хатайкарн, Ержан Тусупов, Гульшарат Джубаева, Мурат Бисенбин.
Описание: В поле зрения спецслужб, ведущих тайную операцию по ликвидации крупнейшей сети наркомафии, попадает странная пара. Студент и мужчина преклонного возраста, кажутся совершенно не подходящей компанией для крутых наркоторговцев.
Соседом по купе пожилого пассажира поезда оказывается общительный паренек. Но что кроется за его приветливой улыбкой и подчеркнутым вниманием к попутчику? Куда приведет их, ставший, вдруг, смертельно опасным, совместный путь?…
Доп. информация: Фильм лицензирован в России, в 2011 году. О происхождении см. скан dvd обложки фильма
Меню: статичное / озвученное
Тип релиза: DVD5
Видео
Идентификатор : 224 (0xE0)
Формат : MPEG Video
Версия формата : Version 2
Профиль формата : Main@Main
Параметр BVOP формата : Да
Параметр матрицы формата : По умолчанию
Продолжительность : 23 м.
Вид битрейта : Переменный
Битрейт : 5560 Кбит/сек
Номинальный битрейт : 8000 Кбит/сек
Ширина : 720 пикс.
Высота : 576 пикс.
Соотношение сторон : 16:9
Частота кадров : 25,000 кадр/сек
Стандарт вещания : PAL
Цветовое пространство : YUV
Подвыборка цветности : 4:2:0
Битовая глубина : 8 бит
Тип развёртки : Чересстрочная
Порядок развёртки : Верхнее поле первое
Метод сжатия : С потерями
Бит/(Пиксели*Кадры) : 0.536
Размер потока : 929 Мбайт (91%)

Аудио
Идентификатор : 189 (0xBD)-128 (0x80)
Формат : AC-3
Формат/Информация : Audio Coding 3
Расширение режима : CM (complete main)
Режим смешивания : DVD-Video
Продолжительность : 23 м.
Вид битрейта : Постоянный
Битрейт : 448 Кбит/сек
Каналы : 6 каналов
Расположение каналов : Front: L C R, Side: L R, LFE
Частота : 48,0 КГц
Битовая глубина : 16 бит
Метод сжатия : С потерями
Размер потока : 74,8 Мбайт (7%)

Контейнер: DVD-Video
Видео: MPEG2 Video, 720x576, (16:9), 25.00fps, VBR
Аудио: Dolby AC3 48000Hz 6ch 448Kbps [AC-3]





   Похожие торренты   Торрент   Размер 
В этой теме нет новых непрочитанных сообщений. Волчий след (2009) DVDRip от F-Torrent | Лицензия

5 | 7

699.77 МБ

В этой теме нет новых непрочитанных сообщений. Волчий след (2009) DVDRip от cinemastreet | Лицензия | КПК

1 | 2

273.84 МБ

В этой теме нет новых непрочитанных сообщений. Волчий след (2009) DVDRip от F-Torrent | Лицензия

16 | 4

1.37 ГБ

В этой теме нет новых непрочитанных сообщений. Волчий След (2009) DVDRip - КинозалSAT

7 | 10

1.37 ГБ

В этой теме нет новых непрочитанных сообщений. След саламандры / След саламандры (1-12 серии из 12) (2009) DVD-9 | Лицензия

0 | 9

14.37 ГБ

В этой теме нет новых непрочитанных сообщений. След саламандры / След саламандры (1-12 серии из 12) (2009) DVDRip

59 | 28

6.95 ГБ

В этой теме нет новых непрочитанных сообщений. След [351-400] (2009) SATRip

13 | 9

17.04 ГБ




Вы не можете начинать темы
Вы не можете отвечать на сообщения
Вы не можете редактировать свои сообщения
Вы не можете удалять свои сообщения
Вы не можете добавлять вложения

Перейти:  
Для Мосгорсуда, Роскомнадзора и рекламодателей: mosgorsud-torrent[собачка]yandex.ru
 Вход
ppkBB3cker v.2 © 2008-2014 @ PPK
[ Time : 0.048s | 17 Queries | GZIP : Off ]

cron