img image001 image001 image001 image001 image001 image001 image001 image001 image001 image001 image001 image001 image001 image001 image001

Planets Sun Sun Sun
Статистика раздачи
Автор: Снежана | Размер: 1.46 ГБ | Добавлен: 24 июл 2013
Раздают: 322    Качают: 22
Скачать торрент
Скачать торрент
Описание торрента

СообщениеДобавлено: 24 июл 2013 

#77

Остров сокровищ (1971) DVDRip

Жанр: Приключения
Год выпуска: 1971
Продолжительность: 01:22:22
Cубтитры: русские

Режиссёр: Евгений Фридман

В ролях: Борис Андреев, Ааре Лаанеметс, Лаймонас Норейка, Альгимантас Масюлис, Юозас Урмонавичус, Людмила Шагалова, А. Пикялис, М. Селютин, Витаутас Томкус, Харий Авенс, Н. Силис, Юрис Плявиньш, Игорь Класс, К. Виткус, Андрей Файт, Владимир Грамматиков, А. Росс, А. Алешин, В. Рудович

Описание: В трактире, стоящем на берегу моря, появляется старый моряк Билли Бонс. Он погибает в схватке с пиратами. В его комнате юный Джим Гокинс находит карту острова с обозначением места, где спрятаны сокровища капитана Флинта. Джим, его друзья отпрвляются в путешествие за таинственным кладом. Немало успытаний выпало на долю путешественников.

Доп. информация:



Качество видео: DVDRip(Исх. DVD9)
Формат видео: AVI

Видео: 720x304 (2.37:1), 25 fps, XviD MPEG-4 ~1619 kbps avg, 0.30 bit/pixel
Аудио: 48 kHz, AC3 Dolby Digital, 3/2 (L,C,R,l,r) + LFE ch, ~448 kbps RUS
Аудио: 48 kHz, AC3 Dolby Digital, 3/2 (L,C,R,l,r) + LFE ch, ~448 kbps ENG
Формат субтитров: softsub (SRT)

File: Ostrov sokrovich.chopper887.avi
Title: Ostrov sokrovich.chopper887
Author: chopper887
Genre: Action/Adventure
Category: Movie
Filesize: 1491.12 Mb ( 1 563 555 840 bytes )
Play length: 01:22:22.399 (123560 frames)
Subtitles: Present (SubRip format)
Video: 720x304 (2.37:1), 25 fps, XviD MPEG-4 ~1619 kbps avg, 0.30 bit/pixel
Audio #1: 48 kHz, AC3 Dolby Digital, 3/2 (L,C,R,l,r) + LFE ch, ~448 kbps
Audio #2: 48 kHz, AC3 Dolby Digital, 3/2 (L,C,R,l,r) + LFE ch, ~448 kbps

General
Complete name : L:Ostrov sokrovich.chopper887Ostrov sokrovich.chopper887.avi
Format : AVI
Format/Info : Audio Video Interleave
File size : 1.46 GiB
Duration : 1h 22mn
Overall bit rate : 2 531 Kbps
Movie name : Ostrov sokrovich.chopper887
Director : chopper887
Genre : Action/Adventure
Writing application : VirtualDubMod 1.5.10.2 (build 2540/release)
Original source form/Name : Movie

Video
ID : 0
Format : MPEG-4 Visual
Format profile : AdvancedSimple@L5
Format settings, BVOP : Yes
Format settings, QPel : No
Format settings, GMC : No warppoints
Format settings, Matrix : Custom
Muxing mode : Packed bitstream
Codec ID : XVID
Codec ID/Hint : XviD
Duration : 1h 22mn
Bit rate : 1 620 Kbps
Width : 720 pixels
Height : 304 pixels
Display aspect ratio : 2.35:1
Frame rate : 25.000 fps
Resolution : 24 bits
Colorimetry : 4:2:0
Scan type : Progressive
Bits/(Pixel*Frame) : 0.296
Stream size : 955 MiB (64%)
Writing library : XviD 1.2.1 (UTC 2008-12-04)

Audio #1
ID : 1
Format : AC-3
Format/Info : Audio Coding 3
Codec ID : 2000
Duration : 1h 22mn
Bit rate mode : Constant
Bit rate : 448 Kbps
Channel(s) : 6 channels
Channel positions : Front: L C R, Surround: L R, LFE
Sampling rate : 48.0 KHz
Stream size : 264 MiB (18%)
Alignment : Split accross interleaves
Interleave, duration : 40 ms (1.00 video frame)
Interleave, preload duration : 500 ms

Audio #2
ID : 2
Format : AC-3
Format/Info : Audio Coding 3
Codec ID : 2000
Duration : 1h 22mn
Bit rate mode : Constant
Bit rate : 448 Kbps
Channel(s) : 6 channels
Channel positions : Front: L C R, Surround: L R, LFE
Sampling rate : 48.0 KHz
Stream size : 264 MiB (18%)
Alignment : Split accross interleaves
Interleave, duration : 40 ms (1.00 video frame)
Interleave, preload duration : 500 ms







   Похожие торренты   Торрент   Размер 
В этой теме нет новых непрочитанных сообщений. Остров сокровищ (1971) DVDRip-AVC

19 | 4

1.45 ГБ

В этой теме нет новых непрочитанных сообщений. Остров сокровищ (1971) HDTVRip 720p

955 | 150

2.99 ГБ

В этой теме нет новых непрочитанных сообщений. Диафильм - Остров сокровищ (1971) JPEG от RG Superdetki

7 | 2

92.59 МБ

В этой теме нет новых непрочитанных сообщений. Остров сокровищ / Алмазный остров / Treasure Island / L'Isola del tesoro (1972) DVDRip от Generalfilm

0 | 57

1.37 ГБ

В этой теме нет новых непрочитанных сообщений. Остров сокровищ (1988) DVDRip

59 | 6

1.46 ГБ

В этой теме нет новых непрочитанных сообщений. Остров сокровищ [01-03 из 03] (1982) DVDRip

5 | 2

2.05 ГБ

В этой теме нет новых непрочитанных сообщений. Остров сокровищ (1988) DVDRip

18 | 6

1.37 ГБ




Вы не можете начинать темы
Вы не можете отвечать на сообщения
Вы не можете редактировать свои сообщения
Вы не можете удалять свои сообщения
Вы не можете добавлять вложения

Перейти:  
Для Мосгорсуда, Роскомнадзора и рекламодателей: mosgorsud-torrent[собачка]yandex.ru
 Вход
ppkBB3cker v.2 © 2008-2014 @ PPK
[ Time : 0.557s | 17 Queries | GZIP : Off ]

Торрент трекер RUTOR.IN, Не можете зайти на rutor.org? Какой новый адрес рутор? Какое зеркало рутор? Не работает rutor.org и зеркала? Тогда наш торрент специально для вас. Rutor.in неофициальное зеркало rutor. В случае если у Вас заблокирован rutor или вдруг Вы не можете на него зайти, то Вы без труда сможете скачать бесплатно и без рекламы последние новинки кино, игр, сериалов и прочего у нас, на Rutor.in. Не нужно использовать прокси, чтобы зайти на рутор, достаточно воспользоваться нашим ресурсом. Все новые фильмы, игры, сериалы, книги и музыка за 2013 и 2014 годы через торрент бесплатно. Скачивайте фильмы в хорошем качестве, игры для пк, xbox, playstation без регистрации. У нас вы найдете новые Зарубежные сериалы и Русские сериалы 2013, 2014, 2015 годов. Оставайтесь с нами, качайте любимые фильмы, игры, сериалы, книги и музыку.
cron