img image001 image001 image001 image001 image001 image001 image001 image001 image001 image001 image001 image001 image001 image001 image001

Planets Sun Sun Sun
Статистика раздачи
Автор: Снежана | Размер: 7.99 ГБ | Добавлен: 24 июл 2013
Раздают: 22    Качают: 7
Скачать торрент
Скачать торрент
Описание торрента

СообщениеДобавлено: 24 июл 2013 

#77

Русское название:Внеземной
Год выпуска: 2007
Жанр: Фантасмагория
Продолжительность: 02:08:22

Описание фильма:
Фильм снят по мотивам повести Юрия Голиченко. Жил да был сельский участковый
милиционер Саша Кутенко. С женой Верой и сыном Вовой. При огороде, при борьбе с самогонщиками да поисками пропавшей козы. Одно отличало его от коллег – сочинение кроссвордов. В этот день кроссворд долго не клеился, пока не нашел участковый ключевое слово – инопланетянин. И тут пришел к нему как всегда пьяный сосед Семенов и сообщил, что его теща нашла гуманоида, отставшего от своих, из тарелки. И назвала пришельца Егорушкой. С этого дня обыденная жизнь милиционера обрела высший смысл, можно сказать, космический. Мумия неизвестного науке маленького существа взбудоражила сонное царство обыденности. Вокруг Егорушки забурлили нешуточные страсти. А Саша Кутенко впервые в жизни ощутил свою значимость, ощутил себя земным хранителем тайн Вселенной. За что и поплатился непониманием со стороны окружающих, развалом семьи, стал жертвой мошенников. Но осознание сопричастности к этой тайне, пусть даже глубоко спрятанное, возвышает героя над унылой серостью житейских будней..
Режиссер: Сергей Крутин
Актеры:Юрий Степанов, Лариса Шахворостова, Виталий Линецкий, Сергей Баталов, Галина Опанасенко, Лина Будник, Мирослав Белоногий, Григорий Боковенко, Сергей Сипливый

Видеокодек: MPEG-4 AVC/H.264
Битрейт видео: ~8 533 Kbps
Размер кадра: 1920х1080
Качество видео: HDTVRip
Аудиокодек: AC3 5.1
Битрейт аудио: ~384 Kbps Оригинал
Сэмпл
Скриншоты:

General
Unique ID : 212357583848103399925844953731381144552 (0x9FC2953D330B1B31AD6E9B80F9512BE8)
Complete name : E:Vnezemnoj.2007.х264.(1080р).HDTVRip.mkv
Format : Matroska
File size : 7.99 GiB
Duration : 2h 8mn
Overall bit rate : 8 914 Kbps
Encoded date : UTC 2011-06-01 10:11:54
Writing application : mkvmerge v4.2.0 ('No Talking') сборка от Jul 28 2010 18:38:23
Writing library : libebml v1.0.0 + libmatroska v1.0.0

Video
ID : 1
Format : AVC
Format/Info : Advanced Video Codec
Format profile : High@L4.1
Format settings, CABAC : Yes
Format settings, ReFrames : 4 frames
Codec ID : V_MPEG4/ISO/AVC
Duration : 2h 8mn
Bit rate : 8 533 Kbps
Width : 1 920 pixels
Height : 1 080 pixels
Display aspect ratio : 16:9
Frame rate : 25.000 fps
Color space : YUV
Chroma subsampling : 4:2:0
Bit depth : 8 bits
Scan type : Progressive
Bits/(Pixel*Frame) : 0.165
Stream size : 7.49 GiB (94%)
Writing library : x264 core 92 r1510 33d382a
Encoding settings : cabac=1 / ref=4 / deblock=1:-3:-3 / analyse=0x3:0x113 / me=umh / subme=10 / psy=1 / psy_rd=1.00:0.20 / mixed_ref=1 / me_range=32 / chroma_me=1 / trellis=2 / 8x8dct=1 / cqm=0 / deadzone=21,11 / fast_pskip=0 / chroma_qp_offset=-3 / threads=6 / sliced_threads=0 / nr=0 / decimate=0 / interlaced=0 / constrained_intra=0 / bframes=3 / b_pyramid=2 / b_adapt=2 / b_bias=0 / direct=3 / wpredb=1 / wpredp=2 / keyint=250 / keyint_min=25 / scenecut=40 / intra_refresh=0 / rc_lookahead=60 / rc=2pass / mbtree=1 / bitrate=8533 / ratetol=1.0 / qcomp=0.60 / qpmin=10 / qpmax=51 / qpstep=4 / cplxblur=20.0 / qblur=0.5 / vbv_maxrate=50000 / vbv_bufsize=50000 / ip_ratio=1.40 / aq=1:1.00 / nal_hrd=none

Audio
ID : 2
Format : AC-3
Format/Info : Audio Coding 3
Mode extension : CM (complete main)
Muxing mode : Header stripping
Codec ID : A_AC3
Duration : 2h 8mn
Bit rate mode : Constant
Bit rate : 384 Kbps
Channel(s) : 6 channels
Channel positions : Front: L C R, Side: L R, LFE
Sampling rate : 48.0 KHz
Bit depth : 16 bits
Compression mode : Lossy
Stream size : 353 MiB (4%)

Menu
00:00:00.000 : :Chapter 01
00:09:02.040 : :Chapter 02
00:19:50.480 : :Chapter 03
00:28:50.160 : :Chapter 04
00:42:12.600 : :Chapter 05
00:50:29.440 : :Chapter 06
00:59:51.920 : :Chapter 07
01:11:17.120 : :Chapter 08
01:21:15.080 : :Chapter 09
01:30:15.120 : :Chapter 10
01:40:46.600 : :Chapter 11
01:55:39.320 : :Chapter 12



   Похожие торренты   Торрент   Размер 
В этой теме нет новых непрочитанных сообщений. Внеземной (2007) WEB-DL 1080p от Files-x

73 | 3

2.18 ГБ

В этой теме нет новых непрочитанных сообщений. Внеземной (2007) HDTVRip от HELLYWOOD

15 | 4

2.24 ГБ

В этой теме нет новых непрочитанных сообщений. Внеземной (2007) HDTVRip от Киномагия

0 | 2

2.06 ГБ

В этой теме нет новых непрочитанных сообщений. Внеземной (2007) HDTVRip 720p от NOLIMITS-TEAM

0 | 2

2.44 ГБ

В этой теме нет новых непрочитанных сообщений. Внеземной (2007) DVDRip

37 | 5

1.37 ГБ

В этой теме нет новых непрочитанных сообщений. Внеземной (2007) DVDRip

2 | 3

2.5 ГБ

В этой теме нет новых непрочитанных сообщений. Внеземной (2007) WEB-DLRip-AVC от Files-x

66 | 10

1.61 ГБ




Вы не можете начинать темы
Вы не можете отвечать на сообщения
Вы не можете редактировать свои сообщения
Вы не можете удалять свои сообщения
Вы не можете добавлять вложения

Перейти:  
Для Мосгорсуда, Роскомнадзора и рекламодателей: mosgorsud-torrent[собачка]yandex.ru
 Вход
ppkBB3cker v.2 © 2008-2014 @ PPK
[ Time : 1.057s | 15 Queries | GZIP : Off ]

Торрент трекер RUTOR.IN, Не можете зайти на rutor.org? Какой новый адрес рутор? Какое зеркало рутор? Не работает rutor.org и зеркала? Тогда наш торрент специально для вас. Rutor.in неофициальное зеркало rutor. В случае если у Вас заблокирован rutor или вдруг Вы не можете на него зайти, то Вы без труда сможете скачать бесплатно и без рекламы последние новинки кино, игр, сериалов и прочего у нас, на Rutor.in. Не нужно использовать прокси, чтобы зайти на рутор, достаточно воспользоваться нашим ресурсом. Все новые фильмы, игры, сериалы, книги и музыка за 2013 и 2014 годы через торрент бесплатно. Скачивайте фильмы в хорошем качестве, игры для пк, xbox, playstation без регистрации. У нас вы найдете новые Зарубежные сериалы и Русские сериалы 2013, 2014, 2015 годов. Оставайтесь с нами, качайте любимые фильмы, игры, сериалы, книги и музыку.
cron