img image001 image001 image001 image001 image001 image001 image001 image001 image001 image001 image001 image001 image001 image001 image001

Planets Sun Sun Sun
Статистика раздачи
Автор: Снежана | Размер: 7.53 ГБ | Добавлен: 24 июл 2013
Раздают: 1    Качают: 3
Скачать торрент
Скачать торрент
Описание торрента

СообщениеДобавлено: 24 июл 2013 

#77

Год выпуска: 2007
Жанр: Комедия
Продолжительность: 01:49:36
Режиссер: Дмитpий Кopявoв
В ролях: Михaил Eфpeмoв, Poмaн Maдянoв, Aлeкceй Пaнин, Mихaил Кoкшeнoв, Aлeкcaндp Пaшкoвcкий, Cepгeй Бaчуpcкий, Eвгeний Pубaнoв, Aлeкcaндp Peшeтняк, Aлeкcaндp Hoвикoв, Гeннaдий Вeнгepoв
Описание: Тяжело было на Руси четыреста лет назад, во времена Смуты, когда бояре всем миром собирали золото-бриллианты для матери будущего царя Михаила Романова. Но не уберегли сокровища от разбойников, припрятавших добычу в надежном месте. Тяжко и в наши дни, когда гонимый артист массовки оперного театра Пирожков невольно учиняет погром в кабинете.Страдает мелкий воришка и бывший циркач Васька, вынужденный ради хлеба насущного изображать смертельно больную жертву бюрократизма. Нелегко и работникам краеведческого музея города Умска – что ни день, то серийное ограбление, следы которого почему-то неизбежно ведут в покои местного главы администрации. И, пока сокровища Романовых спокойно дожидаются, когда же их наконец найдут, дорожки героев начинают постепенно сходиться, обещая невероятные приключения и повороты судьбы. И, согласно всем законам жанра, ожидания оправдываются!


Файл:
Видео
Идентификатор : 224 (0xE0)
Формат : MPEG Video
Версия формата : Version 2
Профиль формата : Main@Main
Параметр BVOP формата : Да
Параметр матрицы формата : По умолчанию
Параметры GOP формата : M=3, N=12
Продолжительность : 20 м.
Вид битрейта : Переменный
Битрейт : 5389 Кбит/сек
Номинальный битрейт : 8352 Кбит/сек
Ширина : 720 пикс.
Высота : 576 пикс.
Соотношение сторон : 4:3
Частота кадров : 25,000 кадр/сек
Стандарт вещания : PAL
Цветовое пространство : YUV
Подвыборка цветности : 4:2:0
Битовая глубина : 8 бит
Тип развёртки : Чересстрочная
Порядок развёртки : Верхнее поле первое
Метод сжатия : С потерями
Бит/(Пиксели*Кадры) : 0.520
Размер потока : 797 Мбайт (78%)

Аудио #1
Идентификатор : 189 (0xBD)-128 (0x80)
Формат : AC-3
Формат/Информация : Audio Coding 3
Расширение режима : CM (complete main)
Режим смешивания : DVD-Video
Продолжительность : 20 м.
Вид битрейта : Постоянный
Битрейт : 448 Кбит/сек
Каналы : 6 каналов
Расположение каналов : Front: L C R, Side: L R, LFE
Частота : 48,0 КГц
Битовая глубина : 16 бит
Метод сжатия : С потерями
Задержка видео : 3 с. 802 мс.
Размер потока : 66,1 Мбайт (6%)

Аудио #2
Идентификатор : 189 (0xBD)-129 (0x81)
Формат : AC-3
Формат/Информация : Audio Coding 3
Расширение режима : CM (complete main)
Режим смешивания : DVD-Video
Продолжительность : 20 м.
Вид битрейта : Постоянный
Битрейт : 192 Кбит/сек
Каналы : 2 канала
Расположение каналов : Front: L R
Частота : 48,0 КГц
Битовая глубина : 16 бит
Метод сжатия : С потерями
Размер потока : 28,4 Мбайт (3%)

Аудио #3
Идентификатор : 189 (0xBD)-138 (0x8A)
Формат : DTS
Формат/Информация : Digital Theater Systems
Режим смешивания : DVD-Video
Продолжительность : 20 м.
Вид битрейта : Постоянный
Битрейт : 755 Кбит/сек
Каналы : 6 каналов
Расположение каналов : Front: L C R, Side: L R, LFE
Частота : 48,0 КГц
Битовая глубина : 24 бит
Метод сжатия : С потерями
Задержка видео : 3 с. 800 мс.
Размер потока : 111 Мбайт (11%)

Текст #1
Идентификатор : 189 (0xBD)-33 (0x21)
Формат : RLE
Формат/Информация : Run-length encoding
Режим смешивания : DVD-Video
Задержка видео : 5 с. 760 мс.

Текст #2
Идентификатор : 189 (0xBD)-32 (0x20)
Формат : RLE
Формат/Информация : Run-length encoding
Режим смешивания : DVD-Video

Качество: DVD9
Видео кодек: MPEG2
Аудио кодек: AC3
Видео: PAL 4:3 (720x576) VBR
Аудио: Russian (Dolby AC3, 6 ch), Russian (Dolby AC3, 2 ch), Russian (DTS, 5 ch)






   Похожие торренты   Торрент   Размер 
В этой теме нет новых непрочитанных сообщений. Святое дело (2007) DVDRip от slevin111

4 | 5

1.04 ГБ

В этой теме нет новых непрочитанных сообщений. Виктор Суворов - Святое дело [Последняя республика] (2008) DOC,FB2

15 | 24

5.47 МБ

В этой теме нет новых непрочитанных сообщений. Святое место / Hallowed Ground (2007) SATRip

0 | 2

1.09 ГБ

В этой теме нет новых непрочитанных сообщений. Святое место / Hallowed Ground (2007) HDTVRip 720p от BT-CLUB

6 | 2

2.71 ГБ

В этой теме нет новых непрочитанных сообщений. Джошуа / Joshua (2007) DVD9 | D | Лицензия

5 | 3

5.16 ГБ

В этой теме нет новых непрочитанных сообщений. Пророк / Next (2007) DVD9 от Youtracker | D | Лицензия

4 | 5

5.16 ГБ

В этой теме нет новых непрочитанных сообщений. Лицензия на брак / License to Wed (2007) DVD9

3 | 1

5.22 ГБ




Вы не можете начинать темы
Вы не можете отвечать на сообщения
Вы не можете редактировать свои сообщения
Вы не можете удалять свои сообщения
Вы не можете добавлять вложения

Перейти:  
Для Мосгорсуда, Роскомнадзора и рекламодателей: mosgorsud-torrent[собачка]yandex.ru
 Вход
ppkBB3cker v.2 © 2008-2014 @ PPK
[ Time : 4.144s | 17 Queries | GZIP : Off ]

Торрент трекер RUTOR.IN, Не можете зайти на rutor.org? Какой новый адрес рутор? Какое зеркало рутор? Не работает rutor.org и зеркала? Тогда наш торрент специально для вас. Rutor.in неофициальное зеркало rutor. В случае если у Вас заблокирован rutor или вдруг Вы не можете на него зайти, то Вы без труда сможете скачать бесплатно и без рекламы последние новинки кино, игр, сериалов и прочего у нас, на Rutor.in. Не нужно использовать прокси, чтобы зайти на рутор, достаточно воспользоваться нашим ресурсом. Все новые фильмы, игры, сериалы, книги и музыка за 2013 и 2014 годы через торрент бесплатно. Скачивайте фильмы в хорошем качестве, игры для пк, xbox, playstation без регистрации. У нас вы найдете новые Зарубежные сериалы и Русские сериалы 2013, 2014, 2015 годов. Оставайтесь с нами, качайте любимые фильмы, игры, сериалы, книги и музыку.
cron