img image001 image001 image001 image001 image001 image001 image001 image001 image001 image001 image001 image001 image001 image001 image001

Planets Sun Sun Sun
Статистика раздачи
Автор: Снежана | Размер: 1.45 ГБ | Добавлен: 24 июл 2013
Раздают: 19    Качают: 4
Скачать торрент
Скачать торрент
Описание торрента

СообщениеДобавлено: 24 июл 2013 

#77

Остров сокровищ (1971) DVDRip-AVC

Жанр: Приключения
Год выпуска: 1971
Продолжительность: 01:22:22
Cубтитры: русские, английские

Режиссёр: Евгений Фридман

В ролях: Борис Андреев, Ааре Лаанеметс, Лаймонас Норейка, Альгимантас Масюлис, Юозас Урмонавичус, Людмила Шагалова, А. Пикялис, М. Селютин, Витаутас Томкус, Харий Авенс, Н. Силис, Юрис Плявиньш, Игорь Класс, К. Виткус, Андрей Файт, Владимир Грамматиков, А. Росс, А. Алешин, В. Рудович

Описание: В трактире, стоящем на берегу моря, появляется старый моряк Билли Бонс. Он погибает в схватке с пиратами. В его комнате юный Джим Гокинс находит карту острова с обозначением места, где спрятаны сокровища капитана Флинта. Джим, его друзья отпрвляются в путешествие за таинственным кладом. Немало успытаний выпало на долю путешественников.

Доп. информация:


Качество видео: DVDRip-AVC(Исх. DVD9)
Формат видео: MKV

Видео: 678x390@918х390 (2.35:1), 25.000 fps, AVC, ~1631 kbps, 0.247 bits/pixel
Аудио: 48 kHz, AC3 Dolby Digital, 3/2 (L,C,R,l,r) + LFE ch, ~448 kbps RUS
Аудио: 48 kHz, AC3 Dolby Digital, 3/2 (L,C,R,l,r) + LFE ch, ~448 kbps ENG
Формат субтитров: softsub (SRT)


General
Complete name : L:Ostrov sokrovish-Island of treasures.chopper887.mkv
Format : Matroska
File size : 1.45 GiB
Duration : 1h 22mn
Overall bit rate : 2 528 Kbps
Movie name : Ostrov sokrovish-Island of treasures.chopper887
Encoded date : UTC 2011-06-05 15:06:47
Writing application : mkvmerge v4.4.0 ('Die Wiederkehr') built on Nov 7 2010 22:17:07
Writing library : libebml v1.0.0 + libmatroska v1.0.0

Video
ID : 1
Format : AVC
Format/Info : Advanced Video Codec
Format profile : High@L3.1
Format settings, CABAC : Yes
Format settings, ReFrames : 10 frames
Muxing mode : Container profile=Unknown@3.1
Codec ID : V_MPEG4/ISO/AVC
Duration : 1h 22mn
Bit rate : 1 582 Kbps
Nominal bit rate : 1 631 Kbps
Width : 678 pixels
Height : 390 pixels
Display aspect ratio : 2.35:1
Original display aspect ratio : 16:9
Frame rate : 25.000 fps
Resolution : 24 bits
Colorimetry : 4:2:0
Scan type : Progressive
Bits/(Pixel*Frame) : 0.239
Stream size : 932 MiB (63%)
Title : Ostrov sokrovish-Island of treasures.chopper887
Writing library : x264 core 114 r1924 08d04a4
Encoding settings : cabac=1 / ref=10 / deblock=1:-2:-1 / analyse=0x3:0x133 / me=umh / subme=9 / psy=1 / psy_rd=1.00:0.10 / mixed_ref=1 / me_range=32 / chroma_me=1 / trellis=2 / 8x8dct=1 / cqm=0 / deadzone=21,11 / fast_pskip=0 / chroma_qp_offset=-3 / threads=3 / sliced_threads=0 / nr=0 / decimate=1 / interlaced=0 / constrained_intra=0 / bframes=9 / b_pyramid=2 / b_adapt=2 / b_bias=0 / direct=3 / weightb=1 / open_gop=0 / weightp=2 / keyint=250 / keyint_min=25 / scenecut=40 / intra_refresh=0 / rc_lookahead=90 / rc=2pass / mbtree=1 / bitrate=1631 / ratetol=1.0 / qcomp=0.70 / qpmin=0 / qpmax=69 / qpstep=4 / cplxblur=20.0 / qblur=0.5 / ip_ratio=1.40 / aq=1:1.00

Audio #1
ID : 2
Format : AC-3
Format/Info : Audio Coding 3
Codec ID : A_AC3
Duration : 1h 22mn
Bit rate mode : Constant
Bit rate : 448 Kbps
Channel(s) : 6 channels
Channel positions : Front: L C R, Surround: L R, LFE
Sampling rate : 48.0 KHz
Stream size : 264 MiB (18%)
Title : Russian

Audio #2
ID : 3
Format : AC-3
Format/Info : Audio Coding 3
Codec ID : A_AC3
Duration : 1h 22mn
Bit rate mode : Constant
Bit rate : 448 Kbps
Channel(s) : 6 channels
Channel positions : Front: L C R, Surround: L R, LFE
Sampling rate : 48.0 KHz
Video delay : 80ms
Stream size : 264 MiB (18%)
Title : English

Text #1
ID : 4
Format : UTF-8
Codec ID : S_TEXT/UTF8
Codec ID/Info : UTF-8 Plain Text
Title : Russian

Text #2
ID : 5
Format : UTF-8
Codec ID : S_TEXT/UTF8
Codec ID/Info : UTF-8 Plain Text
Title : English







   Похожие торренты   Торрент   Размер 
В этой теме нет новых непрочитанных сообщений. Остров сокровищ (1971) DVDRip

322 | 22

1.46 ГБ

В этой теме нет новых непрочитанных сообщений. Остров сокровищ (1971) HDTVRip 720p

955 | 150

2.99 ГБ

В этой теме нет новых непрочитанных сообщений. Диафильм - Остров сокровищ (1971) JPEG от RG Superdetki

7 | 2

92.59 МБ

В этой теме нет новых непрочитанных сообщений. Остров сокровищ / Алмазный остров / Treasure Island / L'Isola del tesoro (1972) DVDRip от Generalfilm

0 | 57

1.37 ГБ

В этой теме нет новых непрочитанных сообщений. Остров сокровищ [01-03 из 03] (1982) DVDRip

5 | 2

2.05 ГБ

В этой теме нет новых непрочитанных сообщений. Остров сокровищ (1988) DVDRip

59 | 6

1.46 ГБ

В этой теме нет новых непрочитанных сообщений. Остров сокровищ (1982) DVDRip

36 | 9

1.39 ГБ




Вы не можете начинать темы
Вы не можете отвечать на сообщения
Вы не можете редактировать свои сообщения
Вы не можете удалять свои сообщения
Вы не можете добавлять вложения

Перейти:  
Для Мосгорсуда, Роскомнадзора и рекламодателей: mosgorsud-torrent[собачка]yandex.ru
 Вход
ppkBB3cker v.2 © 2008-2014 @ PPK
[ Time : 0.042s | 15 Queries | GZIP : On ]
CGP output time : 0.036s | 5 Queries | GZIP : On

Торрент трекер RUTOR.IN, Не можете зайти на rutor.org? Какой новый адрес рутор? Какое зеркало рутор? Не работает rutor.org и зеркала? Тогда наш торрент специально для вас. Rutor.in неофициальное зеркало rutor. В случае если у Вас заблокирован rutor или вдруг Вы не можете на него зайти, то Вы без труда сможете скачать бесплатно и без рекламы последние новинки кино, игр, сериалов и прочего у нас, на Rutor.in. Не нужно использовать прокси, чтобы зайти на рутор, достаточно воспользоваться нашим ресурсом. Все новые фильмы, игры, сериалы, книги и музыка за 2013 и 2014 годы через торрент бесплатно. Скачивайте фильмы в хорошем качестве, игры для пк, xbox, playstation без регистрации. У нас вы найдете новые Зарубежные сериалы и Русские сериалы 2013, 2014, 2015 годов. Оставайтесь с нами, качайте любимые фильмы, игры, сериалы, книги и музыку.