img image001 image001 image001 image001 image001 image001 image001 image001 image001 image001 image001 image001 image001 image001 image001

Planets Sun Sun Sun
Статистика раздачи
Автор: Снежана | Размер: 5.67 ГБ | Добавлен: 24 июл 2013
Раздают: 0    Качают: 7
Скачать торрент
Скачать торрент
Описание торрента

СообщениеДобавлено: 24 июл 2013 

#77

Год выпуска: 2003
Жанр: Психологическая драма
Продолжительность: 01:42:34
Режиссер: Борис Хлебников и Алексей Попогребский
В ролях: Игорь Черневич, Глеб Пускепалис, Владимир Кучеренко, Агриппина Стеклова, Александр Ильин, Евгений Сытый
Описание: Мальчик и Отец едут к морю. Едут в товарном вагоне, в кабине дальнобойщика. Идут от дома к дому, идут лесом, полями. В Москве у них ничего не осталось. А там, у моря, - надежда начать новую счастливую жизнь.
Для Отца путешествие - шанс вернуть утраченную веру в себя, дружбу и доверие сына.
Мечта Мальчика - приморский городок Коктебель, где на никогда не утихающем ветру в небе парят альбатросы.
Когда в середине пути Отец найдет место, которое он захочет назвать новым домом, Мальчику придется выбирать между счастьем Отца и своей мечтой...
Доп. информация: Каталог; Смотрите на ДВД ( трейлеры: Бумер; Трио; Шик); Создатели и Исполнители

Файл:
Видео
Идентификатор : 224 (0xE0)
Формат : MPEG Video
Версия формата : Version 2
Профиль формата : Main@Main
Параметр BVOP формата : Да
Параметр матрицы формата : По умолчанию
Параметры GOP формата : M=3, N=12
Продолжительность : 19 м.
Вид битрейта : Переменный
Битрейт : 5959 Кбит/сек
Номинальный битрейт : 9000 Кбит/сек
Ширина : 720 пикс.
Высота : 576 пикс.
Соотношение сторон : 4:3
Частота кадров : 25,000 кадр/сек
Стандарт вещания : PAL
Цветовое пространство : YUV
Подвыборка цветности : 4:2:0
Битовая глубина : 8 бит
Тип развёртки : Чересстрочная
Порядок развёртки : Верхнее поле первое
Метод сжатия : С потерями
Бит/(Пиксели*Кадры) : 0.575
Размер потока : 835 Мбайт (82%)

Аудио #1
Идентификатор : 189 (0xBD)-128 (0x80)
Формат : AC-3
Формат/Информация : Audio Coding 3
Расширение режима : CM (complete main)
Режим смешивания : DVD-Video
Продолжительность : 19 м.
Вид битрейта : Постоянный
Битрейт : 448 Кбит/сек
Каналы : 6 каналов
Расположение каналов : Front: L C R, Side: L R, LFE
Частота : 48,0 КГц
Битовая глубина : 16 бит
Метод сжатия : С потерями
Задержка видео : -80 мс.
Размер потока : 62,8 Мбайт (6%)

Аудио #2
Идентификатор : 189 (0xBD)-137 (0x89)
Формат : DTS
Формат/Информация : Digital Theater Systems
Режим смешивания : DVD-Video
Продолжительность : 19 м.
Вид битрейта : Постоянный
Битрейт : 755 Кбит/сек
Каналы : 6 каналов
Расположение каналов : Front: L C R, Side: L R, LFE
Частота : 48,0 КГц
Битовая глубина : 24 бит
Метод сжатия : С потерями
Задержка видео : -80 мс.
Размер потока : 106 Мбайт (10%)

Качество: DVD9
Формат: DVD Video
Видео кодек: MPEG2
Аудио кодек: AC3
Видео: PAL 4:3 (720x576)
Аудио: Russian (Dolby AC3, 6 ch) Russian (DTS, 6 ch)




   Похожие торренты   Торрент   Размер 
В этой теме нет новых непрочитанных сообщений. Коктебель (2003) DVDRip

8 | 2

744.1 МБ

В этой теме нет новых непрочитанных сообщений. Коктебель (2003) DVDRip от KinoZalSat

28 | 6

1.37 ГБ

В этой теме нет новых непрочитанных сообщений. R.E.M. - In View: The Best of R.E.M. 1988-2003 (2003) DVD9

0 | 3

7.74 ГБ

В этой теме нет новых непрочитанных сообщений. Дельфинарий "Коктебель" (2009) DVDRip

1 | 2

1000 МБ

В этой теме нет новых непрочитанных сообщений. Кое-что еще / Anything Else (2003) DVD9 от Brazzass

46 | 12

5.33 ГБ

В этой теме нет новых непрочитанных сообщений. Бумер (2003) DVD9

32 | 5

6.95 ГБ

В этой теме нет новых непрочитанных сообщений. Эльф / Elf (2003) DVD9

0 | 1

6.26 ГБ




Вы не можете начинать темы
Вы не можете отвечать на сообщения
Вы не можете редактировать свои сообщения
Вы не можете удалять свои сообщения
Вы не можете добавлять вложения

Перейти:  
Для Мосгорсуда, Роскомнадзора и рекламодателей: mosgorsud-torrent[собачка]yandex.ru
 Вход
ppkBB3cker v.2 © 2008-2014 @ PPK
[ Time : 0.044s | 15 Queries | GZIP : Off ]

Торрент трекер RUTOR.IN, Не можете зайти на rutor.org? Какой новый адрес рутор? Какое зеркало рутор? Не работает rutor.org и зеркала? Тогда наш торрент специально для вас. Rutor.in неофициальное зеркало rutor. В случае если у Вас заблокирован rutor или вдруг Вы не можете на него зайти, то Вы без труда сможете скачать бесплатно и без рекламы последние новинки кино, игр, сериалов и прочего у нас, на Rutor.in. Не нужно использовать прокси, чтобы зайти на рутор, достаточно воспользоваться нашим ресурсом. Все новые фильмы, игры, сериалы, книги и музыка за 2013 и 2014 годы через торрент бесплатно. Скачивайте фильмы в хорошем качестве, игры для пк, xbox, playstation без регистрации. У нас вы найдете новые Зарубежные сериалы и Русские сериалы 2013, 2014, 2015 годов. Оставайтесь с нами, качайте любимые фильмы, игры, сериалы, книги и музыку.
cron