img image001 image001 image001 image001 image001 image001 image001 image001 image001 image001 image001 image001 image001 image001 image001

Planets Sun Sun Sun
Статистика раздачи
Автор: Снежана | Размер: 2.18 ГБ | Добавлен: 24 июл 2013
Раздают: 8    Качают: 3
Скачать торрент
Скачать торрент
Описание торрента

СообщениеДобавлено: 24 июл 2013 

Пирамммида / The PyraMMMid (2011) BDRip-AVC
Релиз от HQ-ViDEO



Информация о фильме
Название: Пирамммида
Альтернативное название: The PyraMMMid
Год выхода: 2011
Жанр: Боевик, Триллер, Драма, Криминал, Биография
Режиссер: Эльдар Салаватов
В ролях: Алексей Серебряков, Фёдор Бондарчук, Петр Федоров, Екатерина Вилкова, Никита Салопин, Юрий Цурило, Алексей Горбунов, Артем Михалков, Анна Михалкова, Даниил Спиваковский, ...

О фильме: Россия, начало 90-х. Страна в процессе болезненного перехода от сверхцентрализованной плановой экономики к рыночным отношениям. Простые люди, прежде жившие в условиях стабильности, растеряны и перепуганы. Все пришло в движение, ход истории разворачивается на глазах. Поворотные моменты истории всегда способствуют появлению всевозможных самозванцев и талантливых мошенников.
Сергей Мамонтов ищет, куда применить себя и свой интеллект. И находит. Мамонтов заказывает макет «ценной бумаги» с имперской вязью, богатым орнаментом, водяными знаками и собственным портретом в самом центре. Своим «деньгам» он назначает цену сам и продает их по принципу: сегодня всегда дороже, чем вчера.
Началась активная рекламная кампания. Чуть больше двух недель оказалось достаточно, чтобы народ уже выстроился в очереди за «мамонтовками», а Мамонтов стал едва ли не национальным героем. И могущественные банкиры, и властные структуры в растерянности - никто не имеет понятия, как прекратить этот беспредел - а в МММ уже набралось больше 10 миллионов вкладчиков… Заговоры, похищения людей, погони, заказные убийства. И немного любви.

Страна: Россия
Студия: Леополис
Продолжительность: 01:49:45
Перевод: Оригинал
Файл
Кодек: MKV, H.264
Качество: BDRip (Исходник: Blu-ray)
Видео: 1024 x 436 (2.35:1), 23.976 fps, MKV, H.264 ~ 2 398 kbps avg, ~ 0.22 bit/pixel
Звук #1: 48 kHz, AC3 Dolby Digital, 3/2 (L,C,R,l,r) + LFE ch, ~448.00 kbps avg
Субтитры: Нет

---[NoImage] avs [info]: 1024x436p 1:1 @ 24000/1001 fps (cfr)
---[NoImage] x264 [info]: using SAR=1/1
---[NoImage] x264 [info]: using cpu capabilities: MMX2 SSE2Fast SSSE3 FastShuffle SSE4.2
---[NoImage] x264 [info]: profile High, level 4.1
---[NoImage]
---[NoImage] x264 [info]: frame I:1068 Avg QP:18.19 size: 56988
---[NoImage] x264 [info]: frame P:31511 Avg QP:20.30 size: 19933
---[NoImage] x264 [info]: frame B:125325 Avg QP:20.92 size: 10248
---[NoImage] x264 [info]: consecutive B-frames: 1.5% 1.5% 6.1% 15.9% 17.8% 39.8% 8.0% 4.0% 2.3% 1.7% 1.4%
---[NoImage] x264 [info]: mb I I16..4: 10.8% 69.0% 20.2%
---[NoImage] x264 [info]: mb P I16..4: 1.5% 6.9% 1.6% P16..4: 52.8% 23.7% 5.4% 0.3% 0.2% skip: 7.5%
---[NoImage] x264 [info]: mb B I16..4: 0.1% 0.7% 0.2% B16..8: 43.2% 12.6% 3.7% direct: 8.2% skip:31.3% L0:44.2% L1:44.1% BI:11.8%
---[NoImage] x264 [info]: 8x8 transform intra:69.1% inter:62.0%
---[NoImage] x264 [info]: direct mvs spatial:97.6% temporal:2.4%
---[NoImage] x264 [info]: coded y,uvDC,uvAC intra: 81.1% 85.6% 69.1% inter: 31.4% 37.2% 11.0%
---[NoImage] x264 [info]: i16 v,h,dc,p: 36% 27% 8% 29%
---[NoImage] x264 [info]: i8 v,h,dc,ddl,ddr,vr,hd,vl,hu: 17% 9% 7% 9% 13% 13% 12% 11% 11%
---[NoImage] x264 [info]: i4 v,h,dc,ddl,ddr,vr,hd,vl,hu: 31% 14% 3% 7% 10% 10% 9% 8% 8%
---[NoImage] x264 [info]: i8c dc,h,v,p: 41% 21% 22% 16%
---[NoImage] x264 [info]: Weighted P-Frames: Y:3.7% UV:1.9%
---[NoImage] x264 [info]: ref P L0: 40.9% 11.1% 19.1% 6.8% 6.0% 4.2% 3.9% 2.1% 2.1% 1.7% 1.9% 0.2% 0.0%
---[NoImage] x264 [info]: ref B L0: 68.1% 13.6% 6.5% 3.5% 2.5% 2.1% 1.7% 1.1% 0.6% 0.3%
---[NoImage] x264 [info]: ref B L1: 91.4% 8.6%
---[NoImage] x264 [info]: kb/s:2397.00


General
Unique ID : 236227276281916430639547623215582960802 (0xB1B7B7F01720F06083505B7E42F05CA2)
Complete name : I:OtherPirammmida.2011.RUS.BDRip-AVC.AC3.-HQ-ViDEO.mkv
Format : Matroska
File size : 2.18 GiB
Duration : 1h 49mn
Overall bit rate : 2 847 Kbps
Movie name : Pirammmida / 2011 / Release by Vaippp / HQ-ViDEO
Encoded date : UTC 2011-06-15 09:41:44
Writing application : mkvmerge v4.8.0 ('I Got The...') сборка от May 24 2011 03:12:58
Writing library : libebml v1.2.0 + libmatroska v1.1.0

Video
ID : 1
Format : AVC
Format/Info : Advanced Video Codec
Format profile : High@L4.1
Format settings, CABAC : Yes
Format settings, ReFrames : 11 frames
Codec ID : V_MPEG4/ISO/AVC
Duration : 1h 49mn
Bit rate : 2 398 Kbps
Width : 1 024 pixels
Height : 436 pixels
Display aspect ratio : 2.35:1
Frame rate : 23.976 fps
Color space : YUV
Chroma subsampling : 4:2:0
Bit depth : 8 bits
Scan type : Progressive
Bits/(Pixel*Frame) : 0.224
Stream size : 1.80 GiB (82%)
Title : BDRip by Vaippp
Writing library : x264 core 115 r1995 c1e60b9
Encoding settings : cabac=1 / ref=11 / deblock=1:-2:-2 / analyse=0x3:0x133 / me=umh / subme=9 / psy=1 / psy_rd=1.05:0.05 / mixed_ref=1 / me_range=48 / chroma_me=1 / trellis=2 / 8x8dct=1 / cqm=0 / deadzone=21,11 / fast_pskip=0 / chroma_qp_offset=-3 / threads=12 / sliced_threads=0 / nr=0 / decimate=1 / interlaced=0 / bluray_compat=0 / constrained_intra=0 / bframes=10 / b_pyramid=2 / b_adapt=2 / b_bias=0 / direct=3 / weightb=1 / open_gop=0 / weightp=2 / keyint=250 / keyint_min=23 / scenecut=40 / intra_refresh=0 / rc_lookahead=40 / rc=2pass / mbtree=0 / bitrate=2398 / ratetol=1.0 / qcomp=0.70 / qpmin=1 / qpmax=65 / qpstep=4 / cplxblur=20.0 / qblur=0.5 / vbv_maxrate=40000 / vbv_bufsize=30000 / nal_hrd=none / ip_ratio=1.40 / pb_ratio=1.30 / aq=2:0.90 / zones=152739,157903,q=35
Language : Russian

Audio
ID : 2
Format : AC-3
Format/Info : Audio Coding 3
Mode extension : CM (complete main)
Codec ID : A_AC3
Duration : 1h 49mn
Bit rate mode : Constant
Bit rate : 448 Kbps
Channel(s) : 6 channels
Channel positions : Front: L C R, Side: L R, LFE
Sampling rate : 48.0 KHz
Bit depth : 16 bits
Compression mode : Lossy
Stream size : 352 MiB (16%)
Title : Original
Language : Russian

Menu
00:00:00.000 : ru:00:00:00.000
00:06:29.973 : ru:00:06:29.973
00:14:45.551 : ru:00:14:45.551
00:21:46.889 : ru:00:21:46.889
00:28:05.642 : ru:00:28:05.642
00:35:59.824 : ru:00:35:59.824
00:41:38.830 : ru:00:41:38.830
00:46:57.106 : ru:00:46:57.106
00:53:27.246 : ru:00:53:27.246
01:02:08.558 : ru:01:02:08.558
01:07:37.095 : ru:01:07:37.095
01:14:19.830 : ru:01:14:19.830
01:23:23.457 : ru:01:23:23.457
01:29:22.274 : ru:01:29:22.274
01:35:54.207 : ru:01:35:54.207
01:45:00.461 : ru:01:45:00.461

Скриншоты для оценки качества:


Автор рипа: Vaippp

Релиз:



   Похожие торренты   Торрент   Размер 
В этой теме нет новых непрочитанных сообщений. Пирамммида / The PyraMMMid (2011) BDRip от HQ-ViDEO

278 | 16

2.18 ГБ

В этой теме нет новых непрочитанных сообщений. Пирамммида (2011) BDRip от HQCLUB

17 | 3

2 ГБ

В этой теме нет новых непрочитанных сообщений. Пирамммида (2011) BDRip от HELLYWOOD

7 | 2

2.05 ГБ

В этой теме нет новых непрочитанных сообщений. Пирамммида (2011) BDRip 1080p Rip by Neofilm

95 | 12

4.31 ГБ

В этой теме нет новых непрочитанных сообщений. ПираМММида (2011) BDRip 1080p от Vaippp

5 | 1

10.24 ГБ

В этой теме нет новых непрочитанных сообщений. ПираМММида (2011) BDRip 720p от Freeisland

244 | 2

4.37 ГБ

В этой теме нет новых непрочитанных сообщений. ПираМММида (2011) BDRip 720p от NOLIMITS-TEAM

0 | 1

2.29 ГБ




Вы не можете начинать темы
Вы не можете отвечать на сообщения
Вы не можете редактировать свои сообщения
Вы не можете удалять свои сообщения
Вы не можете добавлять вложения

Перейти:  
Для Мосгорсуда, Роскомнадзора и рекламодателей: mosgorsud-torrent[собачка]yandex.ru
 Вход
ppkBB3cker v.2 © 2008-2014 @ PPK
[ Time : 0.060s | 15 Queries | GZIP : Off ]

Торрент трекер RUTOR.IN, Не можете зайти на rutor.org? Какой новый адрес рутор? Какое зеркало рутор? Не работает rutor.org и зеркала? Тогда наш торрент специально для вас. Rutor.in неофициальное зеркало rutor. В случае если у Вас заблокирован rutor или вдруг Вы не можете на него зайти, то Вы без труда сможете скачать бесплатно и без рекламы последние новинки кино, игр, сериалов и прочего у нас, на Rutor.in. Не нужно использовать прокси, чтобы зайти на рутор, достаточно воспользоваться нашим ресурсом. Все новые фильмы, игры, сериалы, книги и музыка за 2013 и 2014 годы через торрент бесплатно. Скачивайте фильмы в хорошем качестве, игры для пк, xbox, playstation без регистрации. У нас вы найдете новые Зарубежные сериалы и Русские сериалы 2013, 2014, 2015 годов. Оставайтесь с нами, качайте любимые фильмы, игры, сериалы, книги и музыку.