img image001 image001 image001 image001 image001 image001 image001 image001 image001 image001 image001 image001 image001 image001 image001

Planets Sun Sun Sun
Статистика раздачи
Автор: Снежана | Размер: 1.46 ГБ | Добавлен: 24 июл 2013
Раздают: 7    Качают: 2
Скачать торрент
Скачать торрент
Описание торрента

СообщениеДобавлено: 24 июл 2013 

Служебный роман. Наше время / Sluzhebnyy roman - Nashe vremya (2011) BDRip-AVC
Релиз от HQ-ViDEO



Информация о фильме
Название: Служебный роман. Наше время
Альтернативное название: Sluzhebnyy roman - Nashe vremya
Год выхода: 2011
Жанр: Мелодрама, Комедия
Режиссер: Сарик Андреасян
В ролях: Светлана Ходченкова. Владимир Зеленский. Марат Башаров. Анастасия Заворотнюк. Павел Воля. Дмитрий Хрусталев. Тимур Родригез. Алика Смехова. Иван Охлобыстин. Софья Хилькова, ...

О фильме: Наши дни. Людмила Калугина - акула бизнеса, хозяйка рейтингового агентства. Анатолий Новосельцев - финансовый аналитик, фанатичный байкер и отец двоих детей. И жить бы им: ей - в борьбе с конкурентами, ему офисным планктоном, если бы не служебный роман...

Страна: Россия
Студия: Леополис
Продолжительность: 01:31:03
Перевод: Оригинал
Файл
Кодек: MKV, H.264 codec
Качество: BDRip (Исходник: Blu-ray)
Видео: 1024 x 436 (2.35:1), 23.976 fps, MKV, H.264 ~ 1 903 kbps avg, ~ 0.17 bit/pixel
Звук #1: 48 kHz, AC3 Dolby Digital, 3/2 (L,C,R,l,r) + LFE ch, ~384.00 kbps avg
Субтитры: Русские. СПАСИБО vinalord
---[NoImage] avs [info]: 1024x436p 1:1 @ 24000/1001 fps (cfr)
---[NoImage] x264 [info]: using SAR=1/1
---[NoImage] x264 [info]: using cpu capabilities: MMX2 SSE2Fast SSSE3 FastShuffle SSE4.2
---[NoImage] x264 [info]: profile High, level 4.1
---[NoImage]
---[NoImage] x264 [info]: frame I:1662 Avg QP:17.26 size: 47015
---[NoImage] x264 [info]: frame P:30225 Avg QP:19.72 size: 17141
---[NoImage] x264 [info]: frame B:99098 Avg QP:20.58 size: 7092
---[NoImage] x264 [info]: consecutive B-frames: 2.8% 2.6% 10.6% 26.5% 17.3% 36.4% 2.3% 0.5% 1.0%
---[NoImage] x264 [info]: mb I I16..4: 13.0% 65.8% 21.3%
---[NoImage] x264 [info]: mb P I16..4: 2.1% 9.7% 2.4% P16..4: 50.2% 20.4% 4.9% 0.5% 0.3% skip: 9.5%
---[NoImage] x264 [info]: mb B I16..4: 0.1% 0.9% 0.3% B16..8: 40.1% 11.5% 3.2% direct: 5.6% skip:38.3% L0:41.1% L1:45.2% BI:13.7%
---[NoImage] x264 [info]: 8x8 transform intra:67.2% inter:65.6%
---[NoImage] x264 [info]: direct mvs spatial:96.7% temporal:3.3%
---[NoImage] x264 [info]: coded y,uvDC,uvAC intra: 77.7% 86.3% 68.6% inter: 20.7% 29.4% 7.8%
---[NoImage] x264 [info]: i16 v,h,dc,p: 42% 16% 7% 35%
---[NoImage] x264 [info]: i8 v,h,dc,ddl,ddr,vr,hd,vl,hu: 17% 10% 5% 8% 12% 13% 12% 12% 11%
---[NoImage] x264 [info]: i4 v,h,dc,ddl,ddr,vr,hd,vl,hu: 27% 8% 4% 8% 12% 12% 11% 9% 9%
---[NoImage] x264 [info]: i8c dc,h,v,p: 37% 22% 24% 17%
---[NoImage] x264 [info]: Weighted P-Frames: Y:2.6% UV:1.8%
---[NoImage] x264 [info]: ref P L0: 47.1% 11.2% 18.2% 6.6% 5.3% 4.0% 3.4% 2.0% 2.0% 0.3% 0.0%
---[NoImage] x264 [info]: ref B L0: 75.4% 11.8% 5.5% 2.7% 1.9% 1.5% 0.9% 0.3%
---[NoImage] x264 [info]: ref B L1: 93.1% 6.9%
---[NoImage] x264 [info]: kb/s:1902.24

General
Unique ID : 252260296611041693030196785134067833330 (0xBDC790DEF979EB3CBAC8F4E93308D9F2)
Complete name : I:OtherSluzhebnyi.Roman.Nashe.Vremya.2011.RUS.BDRip-AVC.AC3.-HQ-ViDEO.mkv
Format : Matroska
File size : 1.46 GiB
Duration : 1h 31mn
Overall bit rate : 2 288 Kbps
Movie name : Sluzhebnyi Roman Nashe Vremya / 2011 / Release by Vaippp / HQ-ViDEO
Encoded date : UTC 2011-06-16 07:04:48
Writing application : mkvmerge v4.8.0 ('I Got The...') сборка от May 24 2011 03:12:58
Writing library : libebml v1.2.0 + libmatroska v1.1.0

Video
ID : 1
Format : AVC
Format/Info : Advanced Video Codec
Format profile : High@L4.1
Format settings, CABAC : Yes
Format settings, ReFrames : 9 frames
Codec ID : V_MPEG4/ISO/AVC
Duration : 1h 31mn
Bit rate : 1 903 Kbps
Width : 1 024 pixels
Height : 436 pixels
Display aspect ratio : 2.35:1
Frame rate : 23.976 fps
Color space : YUV
Chroma subsampling : 4:2:0
Bit depth : 8 bits
Scan type : Progressive
Bits/(Pixel*Frame) : 0.178
Stream size : 1.18 GiB (81%)
Title : BDRip by Vaippp
Writing library : x264 core 115 r1995 c1e60b9
Encoding settings : cabac=1 / ref=9 / deblock=1:-2:-2 / analyse=0x3:0x133 / me=umh / subme=9 / psy=1 / psy_rd=1.00:0.05 / mixed_ref=1 / me_range=32 / chroma_me=1 / trellis=2 / 8x8dct=1 / cqm=0 / deadzone=21,11 / fast_pskip=0 / chroma_qp_offset=-3 / threads=12 / sliced_threads=0 / nr=0 / decimate=1 / interlaced=0 / bluray_compat=0 / constrained_intra=0 / bframes=8 / b_pyramid=2 / b_adapt=2 / b_bias=0 / direct=3 / weightb=1 / open_gop=0 / weightp=2 / keyint=250 / keyint_min=23 / scenecut=40 / intra_refresh=0 / rc_lookahead=40 / rc=2pass / mbtree=0 / bitrate=1903 / ratetol=1.0 / qcomp=0.65 / qpmin=1 / qpmax=65 / qpstep=4 / cplxblur=20.0 / qblur=0.5 / vbv_maxrate=40000 / vbv_bufsize=30000 / nal_hrd=none / ip_ratio=1.40 / pb_ratio=1.30 / aq=2:1.00 / zones=125377,130984,q=30
Language : Russian

Audio
ID : 2
Format : AC-3
Format/Info : Audio Coding 3
Mode extension : CM (complete main)
Codec ID : A_AC3
Duration : 1h 31mn
Bit rate mode : Constant
Bit rate : 384 Kbps
Channel(s) : 6 channels
Channel positions : Front: L C R, Side: L R, LFE
Sampling rate : 48.0 KHz
Bit depth : 16 bits
Compression mode : Lossy
Stream size : 250 MiB (17%)
Title : Original
Language : Russian

Menu
00:00:00.000 : ru:00:00:00.000
00:05:55.063 : ru:00:05:55.063
00:09:51.257 : ru:00:09:51.257
00:14:37.168 : ru:00:14:37.168
00:21:08.267 : ru:00:21:08.267
00:26:04.772 : ru:00:26:04.772
00:31:29.387 : ru:00:31:29.387
00:38:36.356 : ru:00:38:36.356
00:43:44.413 : ru:00:43:44.413
00:52:43.327 : ru:00:52:43.327
00:59:31.443 : ru:00:59:31.443
01:06:17.182 : ru:01:06:17.182
01:10:26.389 : ru:01:10:26.389
01:16:06.771 : ru:01:16:06.771
01:22:41.081 : ru:01:22:41.081
01:27:09.057 : ru:01:27:09.057


Скриншоты для оценки качества:



Сравнение с исходником

Автор рипа: Vaippp

Релиз:



   Похожие торренты   Торрент   Размер 
В этой теме нет новых непрочитанных сообщений. Служебный роман. Наше время / Sluzhebnyy roman - Nashe vremya (2011) BDRip от HQ-ViDEO

191 | 12

1.45 ГБ

В этой теме нет новых непрочитанных сообщений. Служебный роман. Наше время (2011) BDRip-AVC от FireBit

11 | 3

2.89 ГБ

В этой теме нет новых непрочитанных сообщений. Служебный роман. Наше время (2011) BDRip от HQCLUB

100 | 20

1.45 ГБ

В этой теме нет новых непрочитанных сообщений. Служебный роман. Наше время (2011) BDRip от HELLYWOOD

200 | 4

1.45 ГБ

В этой теме нет новых непрочитанных сообщений. Служебный роман. Наше время (2011) BDRip-AVC от potroks

23 | 5

2.19 ГБ

В этой теме нет новых непрочитанных сообщений. Служебный роман. Наше время (2011) BDRip 1080p от Vaippp

4 | 7

7.14 ГБ

В этой теме нет новых непрочитанных сообщений. Служебный роман. Наше время (2011) BDRip 720p от Freeisland

10 | 4

4.37 ГБ




Вы не можете начинать темы
Вы не можете отвечать на сообщения
Вы не можете редактировать свои сообщения
Вы не можете удалять свои сообщения
Вы не можете добавлять вложения

Перейти:  
Для Мосгорсуда, Роскомнадзора и рекламодателей: mosgorsud-torrent[собачка]yandex.ru
 Вход
ppkBB3cker v.2 © 2008-2014 @ PPK
[ Time : 0.035s | 14 Queries | GZIP : Off ]

Торрент трекер RUTOR.IN, Не можете зайти на rutor.org? Какой новый адрес рутор? Какое зеркало рутор? Не работает rutor.org и зеркала? Тогда наш торрент специально для вас. Rutor.in неофициальное зеркало rutor. В случае если у Вас заблокирован rutor или вдруг Вы не можете на него зайти, то Вы без труда сможете скачать бесплатно и без рекламы последние новинки кино, игр, сериалов и прочего у нас, на Rutor.in. Не нужно использовать прокси, чтобы зайти на рутор, достаточно воспользоваться нашим ресурсом. Все новые фильмы, игры, сериалы, книги и музыка за 2013 и 2014 годы через торрент бесплатно. Скачивайте фильмы в хорошем качестве, игры для пк, xbox, playstation без регистрации. У нас вы найдете новые Зарубежные сериалы и Русские сериалы 2013, 2014, 2015 годов. Оставайтесь с нами, качайте любимые фильмы, игры, сериалы, книги и музыку.