img image001 image001 image001 image001 image001 image001 image001 image001 image001 image001 image001 image001 image001 image001 image001

Planets Sun Sun Sun
Статистика раздачи
Автор: Снежана | Размер: 745.71 МБ | Добавлен: 24 июл 2013
Раздают: 0    Качают: 3
Скачать торрент
Скачать торрент
Описание торрента

СообщениеДобавлено: 24 июл 2013 

#77

Информация о фильме
Название: Крик в ночи
Год выхода: 2007
Жанр: комедия
Режиссер: Геральд Бежанов
В ролях: Валентин Смирнитский, Кирилл Мугайских, Сергей Пенкин, Александр Панкратов-Черный, Наталья Селезнёва, Ольга Сидорова, Владислав Демченко, Татьяна Арнтгольц, Дмитрий Харатьян, Сергей Блудов

О фильме:
События разворачиваются летом на кинофестивале в некоем городе. Крупный режиссер Георгий Жижикин, он же — один из устроителей фестиваля, избалованный славой, изласканный солнцем и женщинами счастливчик, решает приударить за молоденькой актрисой — Вероникой.

В это время на фестиваль приезжает его бывшая жена — Анна Панамова, некогда знаменитая актриса, но теперь, почти забытая публикой, подавленная женщина. Она не дает прохода Жижикину, требуя, чтобы он помог ей вернуться в кино.


Страна: Россия
Продолжительность: 01:45:02
Перевод: Не требуется

Файл
Кодек: XviD / MP3
Качество: DVDRip
Видео: XviD, 640x368 (16:9), 25.000 fps, 857 Kbps (0.146 bit/pixel)
Звук: MP3, 48.0 KHz, 2 ch, 128 Kbps, CBR (Russian)

General
Complete name : E:Krik.v.nochi_[Rutor.org].avi
Format : AVI
Format/Info : Audio Video Interleave
File size : 746 MiB
Duration : 1h 45mn
Overall bit rate : 993 Kbps
Writing application : VirtualDubMod 1.5.4.1 (build 2178/release)
Writing library : VirtualDubMod build 2178/release

Video
ID : 0
Format : MPEG-4 Visual
Format profile : Advanced Simple@L5
Format settings, BVOP : 1
Format settings, QPel : No
Format settings, GMC : No warppoints
Format settings, Matrix : Custom
Codec ID : XVID
Codec ID/Hint : XviD
Duration : 1h 45mn
Bit rate : 857 Kbps
Width : 640 pixels
Height : 368 pixels
Display aspect ratio : 16:9
Frame rate : 25.000 fps
Color space : YUV
Chroma subsampling : 4:2:0
Bit depth : 8 bits
Scan type : Progressive
Compression mode : Lossy
Bits/(Pixel*Frame) : 0.146
Stream size : 644 MiB (86%)
Writing library : XviD 64

Audio
ID : 1
Format : MPEG Audio
Format version : Version 1
Format profile : Layer 3
Mode : Joint stereo
Mode extension : MS Stereo
Codec ID : 55
Codec ID/Hint : MP3
Duration : 1h 45mn
Bit rate mode : Constant
Bit rate : 128 Kbps
Channel(s) : 2 channels
Sampling rate : 48.0 KHz
Compression mode : Lossy
Stream size : 96.2 MiB (13%)
Alignment : Aligned on interleaves
Interleave, duration : 80 ms (2.00 video frames)
Interleave, preload duration : 504 ms
Writing library : LAME3.98r
Encoding settings : -m j -V 4 -q 2 -lowpass 17 -b 128
Language : Russian




   Похожие торренты   Торрент   Размер 
В этой теме нет новых непрочитанных сообщений. Крик в ночи (2007) DVDRip от Files-x

1 | 3

1.37 ГБ

В этой теме нет новых непрочитанных сообщений. 30 дней ночи / 30 Days of Night (2007) DVDRip

1 | 2

1.37 ГБ

В этой теме нет новых непрочитанных сообщений. Мои черничные ночи / My Blueberry Nights (2007) DVDRip

136 | 6

1.37 ГБ

В этой теме нет новых непрочитанных сообщений. Цветок тысяча и одной ночи / Цветок 1001 ночи / Il fiore delle mille e una notte (1974) DVDRip by GENADIY

32 | 45

1.76 ГБ

В этой теме нет новых непрочитанных сообщений. Хозяева ночи / We Own the Night (2007) HDRip

165 | 6

741.69 МБ

В этой теме нет новых непрочитанных сообщений. Хозяева ночи / We Own the Night (2007) BDRip

101 | 4

1.45 ГБ

В этой теме нет новых непрочитанных сообщений. 30 дней ночи / 30 Days of Night (2007) HDRip-AVC | D

28 | 8

746.37 МБ




Вы не можете начинать темы
Вы не можете отвечать на сообщения
Вы не можете редактировать свои сообщения
Вы не можете удалять свои сообщения
Вы не можете добавлять вложения

Перейти:  
Для Мосгорсуда, Роскомнадзора и рекламодателей: mosgorsud-torrent[собачка]yandex.ru
 Вход
ppkBB3cker v.2 © 2008-2014 @ PPK
[ Time : 0.061s | 14 Queries | GZIP : Off ]

Торрент трекер RUTOR.IN, Не можете зайти на rutor.org? Какой новый адрес рутор? Какое зеркало рутор? Не работает rutor.org и зеркала? Тогда наш торрент специально для вас. Rutor.in неофициальное зеркало rutor. В случае если у Вас заблокирован rutor или вдруг Вы не можете на него зайти, то Вы без труда сможете скачать бесплатно и без рекламы последние новинки кино, игр, сериалов и прочего у нас, на Rutor.in. Не нужно использовать прокси, чтобы зайти на рутор, достаточно воспользоваться нашим ресурсом. Все новые фильмы, игры, сериалы, книги и музыка за 2013 и 2014 годы через торрент бесплатно. Скачивайте фильмы в хорошем качестве, игры для пк, xbox, playstation без регистрации. У нас вы найдете новые Зарубежные сериалы и Русские сериалы 2013, 2014, 2015 годов. Оставайтесь с нами, качайте любимые фильмы, игры, сериалы, книги и музыку.