img image001 image001 image001 image001 image001 image001 image001 image001 image001 image001 image001 image001 image001 image001 image001

Planets Sun Sun Sun
Статистика раздачи
Автор: Снежана | Размер: 697.63 МБ | Добавлен: 24 июл 2013
Раздают: 2    Качают: 2
Скачать торрент
Скачать торрент
Описание торрента

СообщениеДобавлено: 24 июл 2013 

#77
Русское название: Парень с Марса
Год выпуска: 2011
Производство: Россия, TVINDIE Film Production
Жанр: Комедия
Перевод: Оригинальный
Субтитры: Отсутствуют





Режиссер: Сергей Осипьян
Продюсер: Евгений Гиндилис, Виолетта Кречетова, Дина Ким
Актеры: Сергей Аброскин, Ксения Кутепова, Артем Ткаченко, Владас Багдонас, Егор Баринов, Игорь Черневич, Ангелина Миримская, Артем Смола, Игорь Яцко, Никита Емшанов

Описание фильма:
Молодой менеджер Петя Стариков, работающий на гигантской шоколадной фабрике MARZ, не подозревает, что творится за пределами охраняемой территории. Вехи его жизни до поры до времени предсказуемы: задания, поощрения, защиты проектов. Но вот на героя обрушивается шквал неприятностей, удивительных совпадений и удач. С угона машины — такой же, как у сотен сотрудников шоколадной фабрики — начинается новая жизнь Пети…

Продолжительность: 01:32:54
Качество видео: DVDRip

Видеокодек: Xvid
Битрейт видео: ~912 kbps
Размер кадра: 640 x 272 (2.353) at 25.000 fps
Аудиокодек: MP3
Битрейт аудио: 128 kbps (2 ch), 48,0 KHz
G:Парень с Марса (2011DVDRip)Paren.s.marsa.2011.DVDRip.700MB.avi
General
Complete name : G:Парень с Марса (2011DVDRip)Paren.s.marsa.2011.DVDRip.700MB.avi
Format : AVI
Format/Info : Audio Video Interleave
File size : 698 MiB
Duration : 1h 32mn
Overall bit rate : 1 050 Kbps
Writing application : VirtualDubMod 1.5.10.2 (build 2540/release)
Writing library : VirtualDubMod build 2540/release
Video #0
ID : 0
Format : MPEG-4 Visual
Format profile : Advanced Simple@L5
Format settings, BVOP : 1
Format settings, QPel : No
Format settings, GMC : No warppoints
Format settings, Matrix : Default (MPEG)
Codec ID : XVID
Codec ID/Hint : XviD
Duration : 1h 32mn
Bit rate : 912 Kbps
Width : 640 pixels
Height : 272 pixels
Display aspect ratio : 2.35:1
Frame rate : 25.000 fps
Color space : YUV
Chroma subsampling : 4:2:0
Bit depth : 8 bits
Scan type : Progressive
Compression mode : Lossy
Bits/(Pixel*Frame) : 0.210
Stream size : 606 MiB (87%)
Writing library : XviD 1.2.1 (UTC 2008-12-04)
Audio #1
ID : 1
Format : MPEG Audio
Format version : Version 1
Format profile : Layer 3
Codec ID : 55
Codec ID/Hint : MP3
Duration : 1h 32mn
Bit rate mode : Constant
Bit rate : 128 Kbps
Channel(s) : 2 channels
Sampling rate : 48.0 KHz
Compression mode : Lossy
Stream size : 85.0 MiB (12%)
Alignment : Aligned on interleaves
Interleave, duration : 40 ms (1.00 video frame)
Interleave, preload duration : 504 ms
Writing library : LAME3.98r
Encoding settings : -m s -V 4 -q 2 -lowpass 17 -b 128

Скриншоты:



   Похожие торренты   Торрент   Размер 
В этой теме нет новых непрочитанных сообщений. Парень с Марса (2011) DVDRip | Лицензия

205 | 3

1.37 ГБ

В этой теме нет новых непрочитанных сообщений. Парень с Марса (2011) DVD5 | Лицензия

0 | 2

4.18 ГБ

В этой теме нет новых непрочитанных сообщений. Парень с Марса (2011) DVDRip

1 | 3

1.37 ГБ

В этой теме нет новых непрочитанных сообщений. Парень с Марса (2011) DVDRip-AVC от potroks

1 | 2

1.37 ГБ

В этой теме нет новых непрочитанных сообщений. Мой парень из зоопарка / Zookeeper (2011) DVD5 | Лицензия

0 | 1

4.32 ГБ

В этой теме нет новых непрочитанных сообщений. Мой парень из зоопарка / Zookeeper (2011) HDRip | Лицензия

40 | 9

689.54 МБ

В этой теме нет новых непрочитанных сообщений. Мой парень - ангел (2011) DVDRip | КПК от Generalfilm

11 | 2

353.19 МБ




Вы не можете начинать темы
Вы не можете отвечать на сообщения
Вы не можете редактировать свои сообщения
Вы не можете удалять свои сообщения
Вы не можете добавлять вложения

Перейти:  
Для Мосгорсуда, Роскомнадзора и рекламодателей: mosgorsud-torrent[собачка]yandex.ru
 Вход
ppkBB3cker v.2 © 2008-2014 @ PPK
[ Time : 0.050s | 15 Queries | GZIP : Off ]

Торрент трекер RUTOR.IN, Не можете зайти на rutor.org? Какой новый адрес рутор? Какое зеркало рутор? Не работает rutor.org и зеркала? Тогда наш торрент специально для вас. Rutor.in неофициальное зеркало rutor. В случае если у Вас заблокирован rutor или вдруг Вы не можете на него зайти, то Вы без труда сможете скачать бесплатно и без рекламы последние новинки кино, игр, сериалов и прочего у нас, на Rutor.in. Не нужно использовать прокси, чтобы зайти на рутор, достаточно воспользоваться нашим ресурсом. Все новые фильмы, игры, сериалы, книги и музыка за 2013 и 2014 годы через торрент бесплатно. Скачивайте фильмы в хорошем качестве, игры для пк, xbox, playstation без регистрации. У нас вы найдете новые Зарубежные сериалы и Русские сериалы 2013, 2014, 2015 годов. Оставайтесь с нами, качайте любимые фильмы, игры, сериалы, книги и музыку.
cron