img image001 image001 image001 image001 image001 image001 image001 image001 image001 image001 image001 image001 image001 image001 image001

Planets Sun Sun Sun
Статистика раздачи
Автор: Снежана | Размер: 32.59 ГБ | Добавлен: 24 июл 2013
Раздают: 1    Качают: 2
Скачать торрент
Скачать торрент
Описание торрента

СообщениеДобавлено: 24 июл 2013 

[imgright]http://imgup.pp.ua/images/l2ebkkgm.jpg[/imgright]
[u]Информация о фильме[/u]
[b]Название: [/b]Черная молния
[b]Год выхода: [/b]2009
[b]Жанр: [/b] фантастика, боевик, комедия, мелодрама, приключения
[b]Режиссер: [/b]Александр Войтинский, Дмитрий Киселев
[b]В ролях: [/b]Григорий Добрыгин, Валерий Золотухин, Сергей Гармаш, Иван Жидков, Виктор Вержбицкий и др.

[b]О фильме:[/b]
Действие картины разворачивается в наши дни, где главный герой, двадцатилетний Дима Майков, получает в подарок от отца старенькую «Волгу-21» и внезапно обнаруживает, что его машина летает, как настоящий истребитель. Герой бесцельно парит над столичными пробками и беззаботно наслаждается полетами, пока однажды беда не заставляет его по-другому взглянуть на мир. Теперь ему предстоит встать на защиту тех, кем он дорожит, и сразиться со Злом в небе над новогодней Москвой.

[b]Дополнительно:[/b]
Меню анимированное, язык меню - английский
«Фильм о фильме». Сперва продюсер (Тимур Бекмамбетов) рассказывает задумку ленты (этим же ролик заканчивается), затем актер (Григорий Добрыгин) говорит несколько слов о своем персонаже; режиссеры объясняют, почему выбрали именно этих людей в качестве исполнителей главных ролей. С комментариями показан процесс съемок (пожалуй, самая интересная часть фильма). В следующей части съемочная группа объясняет, почему «Черной молнией» сделали именно «Волгу», и почувствуется о спецэффектах фильма. В следующей части Григорий Добрыгин (Дима) рассказывает о наиболее сложных к постановке сценах. Данный "фильм о фильме" весьма интересный.

- Сцены, не вошедшие в фильм. В подборку вошли следующие фрагменты: «Офисные правила», «Допрос рабочих», «Первая зарплата», «Алкаши», «Звонок Бахрама», «Пробка», «Квартира алкаша» и «Отдал долг».

[url=http://www.imdb.com/title/tt1569364/][img]http://s.rutor.org/imdb/pic/1569364.gif[/img][/url] [url=http://www.kinopoisk.ru/level/1/film/439906/][img]http://www.kinopoisk.ru/rating/439906.gif[/img][/url]

[b]Страна: [/b]Россия
[b]Студия: [/b]Universal Pictures
[b]Продолжительность: [/b]01:46:05
[b]Перевод: [/b]Оригинал

[u]Файл[/u]
[b]Кодек: [/b]DTS, VC-1
[b]Качество: [/b]Blu-ray disc
[b]Видео: [/b]1920*1080, VC-1, 28827kbps, 23,976fps, 16:9
[b]Аудио:[/b] DTS-HD Master Audio 5.1 Surround, 3858kbps, 48kHz, Русский; DTS [b]Core:[/b] 1509 kbps, 48 kHz, 5.1, 24-bit
[b]Аудио 2:[/b] DTS, 768kbps, 48kHz, 5.1, английский
[b]Аудио 3:[/b] DTS, 768kbps, 48kHz, 5.1, чешский
[b]Аудио 4:[/b] DTS, 768kbps, 48kHz, 5.1, венгерский
[b]Аудио 5:[/b] DTS, 768kbps, 48kHz, 5.1, польский
[b]Аудио 6:[/b] DTS, 768kbps, 48kHz, 5.1, португальский
[b]Аудио 7:[/b] DTS, 768kbps, 48kHz, 5.1, испанский
[b]Аудио 8:[/b] DTS, 768kbps, 48kHz, 5.1, тайский

[b]Субтитры: [/b]Английский, Болгарский, Хорватский, Чешский, Греческий, Венгерский, Исландский, Польский, Португальский, Румынский, Словенский, Испанский,
Тайский, Турецкий

[spoiler="BDinfo"]Disc Title: Chernaya Molniya [ Black Lightning ] 2009 Blu-ray CEE VC-1 DTS-HD MA5.1 - d69a74
Disc Size: 34 988 567 764 bytes
Protection: AACS
BD-Java: Yes
BDInfo: 0.5.4

Notes:

BDINFO HOME:
Cinema Squid
http://www.cinemasquid.com/blu-ray/tools/bdinfo

INCLUDES FORUMS REPORT FOR:
AVS Forum Blu-ray Audio and Video Specifications Thread
http://www.avsforum.com/avs-vb/showthread.php?t=1155731

********************
PLAYLIST: 00800.MPLS
********************
Код:
Total Video
Title Codec Length Movie Size Disc Size Bitrate Bitrate Main Audio Track Secondary Audio Track
----- ------ ------- -------------- -------------- ------- ------- ------------------ ---------------------
00800.MPLS VC-1 1:46:08 32 523 024 384 34 988 567 764 40,86 28,83 DTS-HD Master 5.1 3858Kbps (48kHz/24-bit)
Код:
DISC INFO:

Disc Title: Chernaya Molniya [ Black Lightning ] 2009 Blu-ray CEE VC-1 DTS-HD MA5.1 - d69a74
Disc Size: 34 988 567 764 bytes
Protection: AACS
BD-Java: Yes
BDInfo: 0.5.4

PLAYLIST REPORT:

Name: 00800.MPLS
Length: 1:46:08 (h:m:s)
Size: 32 523 024 384 bytes
Total Bitrate: 40,86 Mbps

VIDEO:

Codec Bitrate Deion
----- ------- -----------
VC-1 Video 28827 kbps 1080p / 23,976 fps / 16:9 / Advanced Profile 3

AUDIO:

Codec Language Bitrate Deion
----- -------- ------- -----------
DTS-HD Master Audio Russian 3858 kbps 5.1 / 48 kHz / 3858 kbps / 24-bit (DTS Core: 5.1 / 48 kHz / 1509 kbps / 24-bit)
DTS Audio English 768 kbps 5.1 / 48 kHz / 768 kbps / 24-bit
DTS Audio Czech 768 kbps 5.1 / 48 kHz / 768 kbps / 24-bit
DTS Audio Hungarian 768 kbps 5.1 / 48 kHz / 768 kbps / 24-bit
DTS Audio Polish 768 kbps 5.1 / 48 kHz / 768 kbps / 24-bit
DTS Audio Portuguese 768 kbps 5.1 / 48 kHz / 768 kbps / 24-bit
DTS Audio Spanish 768 kbps 5.1 / 48 kHz / 768 kbps / 24-bit
DTS Audio Thai 768 kbps 5.1 / 48 kHz / 768 kbps / 24-bit / DN -1dB

SUBTITLES:

Codec Language Bitrate Deion
----- -------- ------- -----------
Presentation Graphics English 28,357 kbps
Presentation Graphics English 0,787 kbps
Presentation Graphics Bulgarian 25,166 kbps
Presentation Graphics Croatian 23,490 kbps
Presentation Graphics Czech 22,100 kbps
Presentation Graphics Czech 0,705 kbps
Presentation Graphics Greek 27,540 kbps
Presentation Graphics Hungarian 25,012 kbps
Presentation Graphics Hungarian 0,627 kbps
Presentation Graphics Icelandic 25,180 kbps
Presentation Graphics Polish 24,082 kbps
Presentation Graphics Portuguese 24,461 kbps
Presentation Graphics Portuguese 0,231 kbps
Presentation Graphics Romanian 24,165 kbps
Presentation Graphics Slovenian 23,504 kbps
Presentation Graphics Spanish 25,651 kbps
Presentation Graphics Spanish 0,127 kbps
Presentation Graphics Thai 20,428 kbps
Presentation Graphics Thai 0,028 kbps
Presentation Graphics Turkish 25,847 kbps

FILES:

Name Time In Length Size Total Bitrate
---- ------- ------ ---- -------------
00010.M2TS 0:00:00.000 1:46:08.362 32 523 024 384 40 856

CHAPTERS:

Number Time In Length Avg Video Rate Max 1-Sec Rate Max 1-Sec Time Max 5-Sec Rate Max 5-Sec Time Max 10Sec Rate Max 10Sec Time Avg Frame Size Max Frame Size Max Frame Time
------ ------- ------ -------------- -------------- -------------- -------------- -------------- -------------- -------------- -------------- -------------- --------------
1 0:00:00.000 0:05:03.261 27 688 kbps 53 216 kbps 00:00:07.882 38 479 kbps 00:00:04.879 35 095 kbps 00:01:54.239 145 552 bytes 535 736 bytes 00:00:50.967
2 0:05:03.261 0:07:02.380 28 984 kbps 44 004 kbps 00:07:39.917 35 379 kbps 00:06:01.194 34 513 kbps 00:05:56.356 151 481 bytes 532 888 bytes 00:08:12.909
3 0:12:05.641 0:06:14.874 29 863 kbps 43 337 kbps 00:18:04.416 36 716 kbps 00:17:19.037 35 684 kbps 00:17:18.871 155 694 bytes 450 692 bytes 00:15:06.488
4 0:18:20.516 0:05:54.395 29 595 kbps 46 781 kbps 00:19:41.138 35 938 kbps 00:20:49.706 35 016 kbps 00:20:49.623 154 296 bytes 496 276 bytes 00:22:54.623
5 0:24:14.911 0:03:31.419 29 254 kbps 38 422 kbps 00:26:27.544 32 145 kbps 00:27:38.031 31 097 kbps 00:27:32.984 152 519 bytes 598 845 bytes 00:27:06.041
6 0:27:46.331 0:08:33.846 29 393 kbps 46 362 kbps 00:27:46.706 36 532 kbps 00:34:51.547 34 607 kbps 00:29:34.022 153 241 bytes 543 028 bytes 00:34:23.102
7 0:36:20.178 0:03:36.674 29 917 kbps 42 202 kbps 00:36:20.178 36 998 kbps 00:38:07.827 34 859 kbps 00:37:30.456 155 974 bytes 500 814 bytes 00:37:38.923
8 0:39:56.852 0:07:13.975 30 448 kbps 47 974 kbps 00:44:14.860 37 114 kbps 00:46:49.681 35 053 kbps 00:45:50.038 158 817 bytes 542 230 bytes 00:44:14.902
9 0:47:10.828 0:04:34.607 28 962 kbps 39 559 kbps 00:51:11.026 32 274 kbps 00:47:14.456 31 637 kbps 00:47:11.662 150 997 bytes 457 713 bytes 00:50:36.950
10 0:51:45.435 0:07:55.099 29 858 kbps 47 886 kbps 00:58:18.453 36 348 kbps 00:57:46.880 35 379 kbps 00:57:42.792 155 668 bytes 554 942 bytes 00:59:24.477
11 0:59:40.535 0:04:38.444 28 836 kbps 39 096 kbps 01:00:11.107 34 147 kbps 01:02:28.411 32 391 kbps 01:02:28.453 150 336 bytes 390 046 bytes 01:01:24.889
12 1:04:18.980 0:06:46.739 29 331 kbps 46 278 kbps 01:07:53.319 36 544 kbps 01:07:11.318 33 893 kbps 01:05:37.975 152 916 bytes 629 941 bytes 01:08:52.378
13 1:11:05.719 0:06:46.322 30 437 kbps 44 645 kbps 01:17:51.041 36 084 kbps 01:12:24.465 34 105 kbps 01:12:24.465 158 686 bytes 534 176 bytes 01:17:23.930
14 1:17:52.042 0:03:13.234 30 906 kbps 48 939 kbps 01:20:22.108 35 797 kbps 01:19:16.251 34 455 kbps 01:19:11.246 161 132 bytes 541 437 bytes 01:19:39.399
15 1:21:05.277 0:07:48.509 29 773 kbps 57 844 kbps 01:26:28.474 36 839 kbps 01:23:08.358 35 562 kbps 01:23:07.190 155 543 bytes 603 612 bytes 01:23:32.966
16 1:28:53.786 0:06:01.569 29 698 kbps 46 049 kbps 01:30:40.143 35 980 kbps 01:30:39.183 34 569 kbps 01:31:07.503 154 834 bytes 513 803 bytes 01:31:07.545
17 1:34:55.356 0:05:42.759 29 029 kbps 43 923 kbps 01:37:26.507 34 898 kbps 01:39:36.387 33 499 kbps 01:39:34.551 151 749 bytes 449 849 bytes 01:40:22.599
18 1:40:38.115 0:05:30.246 15 738 kbps 28 407 kbps 01:40:42.703 25 910 kbps 01:41:58.278 24 108 kbps 01:41:55.859 82 124 bytes 564 507 bytes 01:42:00.072

STREAM DIAGNOSTICS:

File PID Type Codec Language Seconds Bitrate Bytes Packets
---- --- ---- ----- -------- -------------- -------------- ------------- -----
00010.M2TS 4113 (0x1011) 0xEA VC-1 6368,279 28 827 22 947 293 812 124 805 746
00010.M2TS 4352 (0x1100) 0x82 DTS eng (English) 6368,279 768 611 362 816 3 582 204
00010.M2TS 4353 (0x1101) 0x82 DTS por (Portuguese) 6368,279 768 611 362 816 3 582 204
00010.M2TS 4354 (0x1102) 0x82 DTS ces (Czech) 6368,279 768 611 362 816 3 582 204
00010.M2TS 4355 (0x1103) 0x82 DTS hun (Hungarian) 6368,279 768 611 362 816 3 582 204
00010.M2TS 4356 (0x1104) 0x82 DTS spa (Spanish) 6368,279 768 611 362 816 3 582 204
00010.M2TS 4357 (0x1105) 0x82 DTS pol (Polish) 6368,279 768 611 362 816 3 582 204
00010.M2TS 4358 (0x1106) 0x86 DTS-HD MA rus (Russian) 6368,279 3 858 3 071 467 476 17 685 443
00010.M2TS 4359 (0x1107) 0x82 DTS tha (Thai) 6368,279 768 611 362 816 3 582 204
00010.M2TS 4608 (0x1200) 0x90 PGS eng (English) 6368,279 28 22 573 580 130 682
00010.M2TS 4609 (0x1201) 0x90 PGS por (Portuguese) 6368,279 24 19 472 116 113 412
00010.M2TS 4610 (0x1202) 0x90 PGS ces (Czech) 6368,279 22 17 592 948 103 202
00010.M2TS 4611 (0x1203) 0x90 PGS hun (Hungarian) 6368,279 25 19 911 034 115 799
00010.M2TS 4612 (0x1204) 0x90 PGS spa (Spanish) 6368,279 26 20 419 404 118 528
00010.M2TS 4613 (0x1205) 0x90 PGS pol (Polish) 6368,279 24 19 170 624 111 747
00010.M2TS 4614 (0x1206) 0x90 PGS tha (Thai) 6368,279 20 16 261 736 96 087
00010.M2TS 4615 (0x1207) 0x90 PGS bul (Bulgarian) 6368,279 25 20 032 994 116 446
00010.M2TS 4616 (0x1208) 0x90 PGS hrv (Croatian) 6368,279 23 18 699 098 109 231
00010.M2TS 4617 (0x1209) 0x90 PGS ell (Greek) 6368,279 28 21 923 137 126 698
00010.M2TS 4618 (0x120A) 0x90 PGS isl (Icelandic) 6368,279 25 20 044 090 116 493
00010.M2TS 4619 (0x120B) 0x90 PGS ron (Romanian) 6368,279 24 19 236 631 112 180
00010.M2TS 4620 (0x120C) 0x90 PGS tur (Turkish) 6368,279 26 20 575 598 119 398
00010.M2TS 4621 (0x120D) 0x90 PGS slv (Slovenian) 6368,279 24 18 709 928 109 274
00010.M2TS 4622 (0x120E) 0x90 PGS eng (English) 6368,279 1 626 222 3 642
00010.M2TS 4623 (0x120F) 0x90 PGS por (Portuguese) 6368,279 0 183 561 1 060
00010.M2TS 4624 (0x1210) 0x90 PGS ces (Czech) 6368,279 1 561 513 3 265
00010.M2TS 4625 (0x1211) 0x90 PGS hun (Hungarian) 6368,279 1 499 447 2 899
00010.M2TS 4626 (0x1212) 0x90 PGS spa (Spanish) 6368,279 0 100 742 575
00010.M2TS 4627 (0x1213) 0x90 PGS tha (Thai) 6368,279 0 22 428 135
QUICK SUMMARY:

Disc Title: Chernaya Molniya [ Black Lightning ] 2009 Blu-ray CEE VC-1 DTS-HD MA5.1 - d69a74
Disc Size: 34 988 567 764 bytes
Protection: AACS
BD-Java: Yes
Playlist: 00800.MPLS
Size: 32 523 024 384 bytes
Length: 1:46:08
Total Bitrate: 40,86 Mbps
Video: VC-1 Video / 28827 kbps / 1080p / 23,976 fps / 16:9 / Advanced Profile 3
Audio: Russian / DTS-HD Master Audio / 5.1 / 48 kHz / 3858 kbps / 24-bit (DTS Core: 5.1 / 48 kHz / 1509 kbps / 24-bit)
Audio: English / DTS Audio / 5.1 / 48 kHz / 768 kbps / 24-bit
Audio: Czech / DTS Audio / 5.1 / 48 kHz / 768 kbps / 24-bit
Audio: Hungarian / DTS Audio / 5.1 / 48 kHz / 768 kbps / 24-bit
Audio: Polish / DTS Audio / 5.1 / 48 kHz / 768 kbps / 24-bit
Audio: Portuguese / DTS Audio / 5.1 / 48 kHz / 768 kbps / 24-bit
Audio: Spanish / DTS Audio / 5.1 / 48 kHz / 768 kbps / 24-bit
Audio: Thai / DTS Audio / 5.1 / 48 kHz / 768 kbps / 24-bit / DN -1dB
Subtitle: English / 28,357 kbps
Subtitle: English / 0,787 kbps
Subtitle: Bulgarian / 25,166 kbps
Subtitle: Croatian / 23,490 kbps
Subtitle: Czech / 22,100 kbps
Subtitle: Czech / 0,705 kbps
Subtitle: Greek / 27,540 kbps
Subtitle: Hungarian / 25,012 kbps
Subtitle: Hungarian / 0,627 kbps
Subtitle: Icelandic / 25,180 kbps
Subtitle: Polish / 24,082 kbps
Subtitle: Portuguese / 24,461 kbps
Subtitle: Portuguese / 0,231 kbps
Subtitle: Romanian / 24,165 kbps
Subtitle: Slovenian / 23,504 kbps
Subtitle: Spanish / 25,651 kbps
Subtitle: Spanish / 0,127 kbps
Subtitle: Thai / 20,428 kbps
Subtitle: Thai / 0,028 kbps
Subtitle: Turkish / 25,847 kbps

********************
PLAYLIST: 00801.MPLS
********************
Код:
Total Video
Title Codec Length Movie Size Disc Size Bitrate Bitrate Main Audio Track Secondary Audio Track
----- ------ ------- -------------- -------------- ------- ------- ------------------ ---------------------
00801.MPLS VC-1 1:46:08 32 523 024 384 34 988 567 764 40,86 28,83 DTS-HD Master 5.1 3858Kbps (48kHz/24-bit)
Код:
DISC INFO:

Disc Title: Chernaya Molniya [ Black Lightning ] 2009 Blu-ray CEE VC-1 DTS-HD MA5.1 - d69a74
Disc Size: 34 988 567 764 bytes
Protection: AACS
BD-Java: Yes
BDInfo: 0.5.4

PLAYLIST REPORT:

Name: 00801.MPLS
Length: 1:46:08 (h:m:s)
Size: 32 523 024 384 bytes
Total Bitrate: 40,86 Mbps

VIDEO:

Codec Bitrate Deion
----- ------- -----------
VC-1 Video 28827 kbps 1080p / 23,976 fps / 16:9 / Advanced Profile 3

AUDIO:

Codec Language Bitrate Deion
----- -------- ------- -----------
DTS-HD Master Audio Russian 3858 kbps 5.1 / 48 kHz / 3858 kbps / 24-bit (DTS Core: 5.1 / 48 kHz / 1509 kbps / 24-bit)
DTS Audio English 768 kbps 5.1 / 48 kHz / 768 kbps / 24-bit
DTS Audio Czech 768 kbps 5.1 / 48 kHz / 768 kbps / 24-bit
DTS Audio Hungarian 768 kbps 5.1 / 48 kHz / 768 kbps / 24-bit
DTS Audio Polish 768 kbps 5.1 / 48 kHz / 768 kbps / 24-bit
DTS Audio Portuguese 768 kbps 5.1 / 48 kHz / 768 kbps / 24-bit
DTS Audio Spanish 768 kbps 5.1 / 48 kHz / 768 kbps / 24-bit
DTS Audio Thai 768 kbps 5.1 / 48 kHz / 768 kbps / 24-bit / DN -1dB

SUBTITLES:

Codec Language Bitrate Deion
----- -------- ------- -----------
Presentation Graphics English 28,357 kbps
Presentation Graphics English 0,787 kbps
Presentation Graphics Bulgarian 25,166 kbps
Presentation Graphics Croatian 23,490 kbps
Presentation Graphics Czech 22,100 kbps
Presentation Graphics Czech 0,705 kbps
Presentation Graphics Greek 27,540 kbps
Presentation Graphics Hungarian 25,012 kbps
Presentation Graphics Hungarian 0,627 kbps
Presentation Graphics Icelandic 25,180 kbps
Presentation Graphics Polish 24,082 kbps
Presentation Graphics Portuguese 24,461 kbps
Presentation Graphics Portuguese 0,231 kbps
Presentation Graphics Romanian 24,165 kbps
Presentation Graphics Slovenian 23,504 kbps
Presentation Graphics Spanish 25,651 kbps
Presentation Graphics Spanish 0,127 kbps
Presentation Graphics Thai 20,428 kbps
Presentation Graphics Thai 0,028 kbps
Presentation Graphics Turkish 25,847 kbps

FILES:

Name Time In Length Size Total Bitrate
---- ------- ------ ---- -------------
00010.M2TS 0:00:00.000 1:46:08.362 32 523 024 384 40 856

CHAPTERS:

Number Time In Length Avg Video Rate Max 1-Sec Rate Max 1-Sec Time Max 5-Sec Rate Max 5-Sec Time Max 10Sec Rate Max 10Sec Time Avg Frame Size Max Frame Size Max Frame Time
------ ------- ------ -------------- -------------- -------------- -------------- -------------- -------------- -------------- -------------- -------------- --------------
1 0:00:00.000 1:46:08.362 28 827 kbps 57 844 kbps 01:26:28.474 38 479 kbps 00:00:04.879 35 684 kbps 00:17:18.871 150 429 bytes 629 941 bytes 01:08:52.378

STREAM DIAGNOSTICS:

File PID Type Codec Language Seconds Bitrate Bytes Packets
---- --- ---- ----- -------- -------------- -------------- ------------- -----
00010.M2TS 4113 (0x1011) 0xEA VC-1 6368,279 28 827 22 947 293 812 124 805 746
00010.M2TS 4352 (0x1100) 0x82 DTS eng (English) 6368,279 768 611 362 816 3 582 204
00010.M2TS 4353 (0x1101) 0x82 DTS por (Portuguese) 6368,279 768 611 362 816 3 582 204
00010.M2TS 4354 (0x1102) 0x82 DTS ces (Czech) 6368,279 768 611 362 816 3 582 204
00010.M2TS 4355 (0x1103) 0x82 DTS hun (Hungarian) 6368,279 768 611 362 816 3 582 204
00010.M2TS 4356 (0x1104) 0x82 DTS spa (Spanish) 6368,279 768 611 362 816 3 582 204
00010.M2TS 4357 (0x1105) 0x82 DTS pol (Polish) 6368,279 768 611 362 816 3 582 204
00010.M2TS 4358 (0x1106) 0x86 DTS-HD MA rus (Russian) 6368,279 3 858 3 071 467 476 17 685 443
00010.M2TS 4359 (0x1107) 0x82 DTS tha (Thai) 6368,279 768 611 362 816 3 582 204
00010.M2TS 4608 (0x1200) 0x90 PGS eng (English) 6368,279 28 22 573 580 130 682
00010.M2TS 4609 (0x1201) 0x90 PGS por (Portuguese) 6368,279 24 19 472 116 113 412
00010.M2TS 4610 (0x1202) 0x90 PGS ces (Czech) 6368,279 22 17 592 948 103 202
00010.M2TS 4611 (0x1203) 0x90 PGS hun (Hungarian) 6368,279 25 19 911 034 115 799
00010.M2TS 4612 (0x1204) 0x90 PGS spa (Spanish) 6368,279 26 20 419 404 118 528
00010.M2TS 4613 (0x1205) 0x90 PGS pol (Polish) 6368,279 24 19 170 624 111 747
00010.M2TS 4614 (0x1206) 0x90 PGS tha (Thai) 6368,279 20 16 261 736 96 087
00010.M2TS 4615 (0x1207) 0x90 PGS bul (Bulgarian) 6368,279 25 20 032 994 116 446
00010.M2TS 4616 (0x1208) 0x90 PGS hrv (Croatian) 6368,279 23 18 699 098 109 231
00010.M2TS 4617 (0x1209) 0x90 PGS ell (Greek) 6368,279 28 21 923 137 126 698
00010.M2TS 4618 (0x120A) 0x90 PGS isl (Icelandic) 6368,279 25 20 044 090 116 493
00010.M2TS 4619 (0x120B) 0x90 PGS ron (Romanian) 6368,279 24 19 236 631 112 180
00010.M2TS 4620 (0x120C) 0x90 PGS tur (Turkish) 6368,279 26 20 575 598 119 398
00010.M2TS 4621 (0x120D) 0x90 PGS slv (Slovenian) 6368,279 24 18 709 928 109 274
00010.M2TS 4622 (0x120E) 0x90 PGS eng (English) 6368,279 1 626 222 3 642
00010.M2TS 4623 (0x120F) 0x90 PGS por (Portuguese) 6368,279 0 183 561 1 060
00010.M2TS 4624 (0x1210) 0x90 PGS ces (Czech) 6368,279 1 561 513 3 265
00010.M2TS 4625 (0x1211) 0x90 PGS hun (Hungarian) 6368,279 1 499 447 2 899
00010.M2TS 4626 (0x1212) 0x90 PGS spa (Spanish) 6368,279 0 100 742 575
00010.M2TS 4627 (0x1213) 0x90 PGS tha (Thai) 6368,279 0 22 428 135
QUICK SUMMARY:

Disc Title: Chernaya Molniya [ Black Lightning ] 2009 Blu-ray CEE VC-1 DTS-HD MA5.1 - d69a74
Disc Size: 34 988 567 764 bytes
Protection: AACS
BD-Java: Yes
Playlist: 00801.MPLS
Size: 32 523 024 384 bytes
Length: 1:46:08
Total Bitrate: 40,86 Mbps
Video: VC-1 Video / 28827 kbps / 1080p / 23,976 fps / 16:9 / Advanced Profile 3
Audio: Russian / DTS-HD Master Audio / 5.1 / 48 kHz / 3858 kbps / 24-bit (DTS Core: 5.1 / 48 kHz / 1509 kbps / 24-bit)
Audio: English / DTS Audio / 5.1 / 48 kHz / 768 kbps / 24-bit
Audio: Czech / DTS Audio / 5.1 / 48 kHz / 768 kbps / 24-bit
Audio: Hungarian / DTS Audio / 5.1 / 48 kHz / 768 kbps / 24-bit
Audio: Polish / DTS Audio / 5.1 / 48 kHz / 768 kbps / 24-bit
Audio: Portuguese / DTS Audio / 5.1 / 48 kHz / 768 kbps / 24-bit
Audio: Spanish / DTS Audio / 5.1 / 48 kHz / 768 kbps / 24-bit
Audio: Thai / DTS Audio / 5.1 / 48 kHz / 768 kbps / 24-bit / DN -1dB
Subtitle: English / 28,357 kbps
Subtitle: English / 0,787 kbps
Subtitle: Bulgarian / 25,166 kbps
Subtitle: Croatian / 23,490 kbps
Subtitle: Czech / 22,100 kbps
Subtitle: Czech / 0,705 kbps
Subtitle: Greek / 27,540 kbps
Subtitle: Hungarian / 25,012 kbps
Subtitle: Hungarian / 0,627 kbps
Subtitle: Icelandic / 25,180 kbps
Subtitle: Polish / 24,082 kbps
Subtitle: Portuguese / 24,461 kbps
Subtitle: Portuguese / 0,231 kbps
Subtitle: Romanian / 24,165 kbps
Subtitle: Slovenian / 23,504 kbps
Subtitle: Spanish / 25,651 kbps
Subtitle: Spanish / 0,127 kbps
Subtitle: Thai / 20,428 kbps
Subtitle: Thai / 0,028 kbps
Subtitle: Turkish / 25,847 kbps

********************
PLAYLIST: 00301.MPLS
********************
Код:
Total Video
Title Codec Length Movie Size Disc Size Bitrate Bitrate Main Audio Track Secondary Audio Track
----- ------ ------- -------------- -------------- ------- ------- ------------------ ---------------------
00301.MPLS AVC 0:24:45 1 058 310 144 34 988 567 764 5,70 5,00 DTS 2.0 256Kbps (48kHz/16-bit)
Код:
DISC INFO:

Disc Title: Chernaya Molniya [ Black Lightning ] 2009 Blu-ray CEE VC-1 DTS-HD MA5.1 - d69a74
Disc Size: 34 988 567 764 bytes
Protection: AACS
BD-Java: Yes
BDInfo: 0.5.4

PLAYLIST REPORT:

Name: 00301.MPLS
Length: 0:24:45 (h:m:s)
Size: 1 058 310 144 bytes
Total Bitrate: 5,70 Mbps

VIDEO:

Codec Bitrate Deion
----- ------- -----------
MPEG-4 AVC Video 5000 kbps 480i / 29,970 fps / 16:9 / Main Profile 3.2

AUDIO:

Codec Language Bitrate Deion
----- -------- ------- -----------
DTS Audio Russian 256 kbps 2.0 / 48 kHz / 256 kbps / 16-bit

SUBTITLES:

Codec Language Bitrate Deion
----- -------- ------- -----------
Presentation Graphics English 19,704 kbps
Presentation Graphics Greek 21,661 kbps
Presentation Graphics Polish 17,604 kbps
Presentation Graphics Portuguese 17,992 kbps
Presentation Graphics Spanish 19,214 kbps

FILES:

Name Time In Length Size Total Bitrate
---- ------- ------ ---- -------------
50131.M2TS 0:00:00.000 0:24:45.951 1 058 310 144 5 698

CHAPTERS:

Number Time In Length Avg Video Rate Max 1-Sec Rate Max 1-Sec Time Max 5-Sec Rate Max 5-Sec Time Max 10Sec Rate Max 10Sec Time Avg Frame Size Max Frame Size Max Frame Time
------ ------- ------ -------------- -------------- -------------- -------------- -------------- -------------- -------------- -------------- -------------- --------------
1 0:00:00.000 0:24:45.951 5 000 kbps 11 511 kbps 00:04:04.210 9 847 kbps 00:14:05.311 8 156 kbps 00:04:03.476 20 855 bytes 98 167 bytes 00:15:15.381

STREAM DIAGNOSTICS:

File PID Type Codec Language Seconds Bitrate Bytes Packets
---- --- ---- ----- -------- -------------- -------------- ------------- -----
50131.M2TS 4113 (0x1011) 0x1B AVC 1485,851 5 001 928 776 350 5 073 666
50131.M2TS 4352 (0x1100) 0x82 DTS rus (Russian) 1485,851 255 47 364 720 278 616
50131.M2TS 4608 (0x1200) 0x90 PGS eng (English) 1485,851 20 3 659 924 22 500
50131.M2TS 4609 (0x1201) 0x90 PGS por (Portuguese) 1485,851 18 3 341 851 20 739
50131.M2TS 4610 (0x1202) 0x90 PGS spa (Spanish) 1485,851 19 3 568 936 21 963
50131.M2TS 4611 (0x1203) 0x90 PGS pol (Polish) 1485,851 18 3 269 785 20 329
50131.M2TS 4612 (0x1204) 0x90 PGS ell (Greek) 1485,851 22 4 023 373 24 431
QUICK SUMMARY:

Disc Title: Chernaya Molniya [ Black Lightning ] 2009 Blu-ray CEE VC-1 DTS-HD MA5.1 - d69a74
Disc Size: 34 988 567 764 bytes
Protection: AACS
BD-Java: Yes
Playlist: 00301.MPLS
Size: 1 058 310 144 bytes
Length: 0:24:45
Total Bitrate: 5,70 Mbps
Video: MPEG-4 AVC Video / 5000 kbps / 480i / 29,970 fps / 16:9 / Main Profile 3.2
Audio: Russian / DTS Audio / 2.0 / 48 kHz / 256 kbps / 16-bit
Subtitle: English / 19,704 kbps
Subtitle: Greek / 21,661 kbps
Subtitle: Polish / 17,604 kbps
Subtitle: Portuguese / 17,992 kbps
Subtitle: Spanish / 19,214 kbps

********************
PLAYLIST: 00300.MPLS
********************
Код:
Total Video
Title Codec Length Movie Size Disc Size Bitrate Bitrate Main Audio Track Secondary Audio Track
----- ------ ------- -------------- -------------- ------- ------- ------------------ ---------------------
00300.MPLS AVC 0:08:57 378 071 040 34 988 567 764 5,62 4,99 DTS 2.0 256Kbps (48kHz/16-bit)
Код:
DISC INFO:

Disc Title: Chernaya Molniya [ Black Lightning ] 2009 Blu-ray CEE VC-1 DTS-HD MA5.1 - d69a74
Disc Size: 34 988 567 764 bytes
Protection: AACS
BD-Java: Yes
BDInfo: 0.5.4

PLAYLIST REPORT:

Name: 00300.MPLS
Length: 0:08:57 (h:m:s)
Size: 378 071 040 bytes
Total Bitrate: 5,62 Mbps

VIDEO:

Codec Bitrate Deion
----- ------- -----------
MPEG-4 AVC Video 4986 kbps 480i / 29,970 fps / 16:9 / Main Profile 3.2

AUDIO:

Codec Language Bitrate Deion
----- -------- ------- -----------
DTS Audio Russian 256 kbps 2.0 / 48 kHz / 256 kbps / 16-bit

SUBTITLES:

Codec Language Bitrate Deion
----- -------- ------- -----------
Presentation Graphics English 9,141 kbps
Presentation Graphics Greek 9,758 kbps
Presentation Graphics Polish 7,925 kbps
Presentation Graphics Portuguese 8,836 kbps
Presentation Graphics Spanish 9,079 kbps

FILES:

Name Time In Length Size Total Bitrate
---- ------- ------ ---- -------------
00011.M2TS 0:00:00.000 0:08:57.803 378 071 040 5 624

CHAPTERS:

Number Time In Length Avg Video Rate Max 1-Sec Rate Max 1-Sec Time Max 5-Sec Rate Max 5-Sec Time Max 10Sec Rate Max 10Sec Time Avg Frame Size Max Frame Size Max Frame Time
------ ------- ------ -------------- -------------- -------------- -------------- -------------- -------------- -------------- -------------- -------------- --------------
1 0:00:00.000 0:08:57.803 4 986 kbps 9 704 kbps 00:06:05.398 7 577 kbps 00:06:20.413 6 712 kbps 00:06:38.164 20 795 bytes 79 524 bytes 00:05:32.532

STREAM DIAGNOSTICS:

File PID Type Codec Language Seconds Bitrate Bytes Packets
---- --- ---- ----- -------- -------------- -------------- ------------- -----
00011.M2TS 4113 (0x1011) 0x1B AVC 537,737 4 986 335 168 198 1 830 985
00011.M2TS 4352 (0x1100) 0x82 DTS rus (Russian) 537,737 255 17 142 800 100 840
00011.M2TS 4608 (0x1200) 0x90 PGS eng (English) 537,737 9 614 504 3 927
00011.M2TS 4609 (0x1201) 0x90 PGS por (Portuguese) 537,737 9 594 004 3 816
00011.M2TS 4610 (0x1202) 0x90 PGS spa (Spanish) 537,737 9 610 358 3 898
00011.M2TS 4611 (0x1203) 0x90 PGS pol (Polish) 537,737 8 532 750 3 480
00011.M2TS 4612 (0x1204) 0x90 PGS ell (Greek) 537,737 10 656 006 4 149
QUICK SUMMARY:

Disc Title: Chernaya Molniya [ Black Lightning ] 2009 Blu-ray CEE VC-1 DTS-HD MA5.1 - d69a74
Disc Size: 34 988 567 764 bytes
Protection: AACS
BD-Java: Yes
Playlist: 00300.MPLS
Size: 378 071 040 bytes
Length: 0:08:57
Total Bitrate: 5,62 Mbps
Video: MPEG-4 AVC Video / 4986 kbps / 480i / 29,970 fps / 16:9 / Main Profile 3.2
Audio: Russian / DTS Audio / 2.0 / 48 kHz / 256 kbps / 16-bit
Subtitle: English / 9,141 kbps
Subtitle: Greek / 9,758 kbps
Subtitle: Polish / 7,925 kbps
Subtitle: Portuguese / 8,836 kbps
Subtitle: Spanish / 9,079 kbps

********************
PLAYLIST: 00021.MPLS
********************
Код:
Total Video
Title Codec Length Movie Size Disc Size Bitrate Bitrate Main Audio Track Secondary Audio Track
----- ------ ------- -------------- -------------- ------- ------- ------------------ ---------------------
00021.MPLS VC-1 0:01:05 188 264 448 34 988 567 764 22,97 21,25 DD AC3 5.1 640Kbps
Код:
DISC INFO:

Disc Title: Chernaya Molniya [ Black Lightning ] 2009 Blu-ray CEE VC-1 DTS-HD MA5.1 - d69a74
Disc Size: 34 988 567 764 bytes
Protection: AACS
BD-Java: Yes
BDInfo: 0.5.4

PLAYLIST REPORT:

Name: 00021.MPLS
Length: 0:01:05 (h:m:s)
Size: 188 264 448 bytes
Total Bitrate: 22,97 Mbps

VIDEO:

Codec Bitrate Deion
----- ------- -----------
VC-1 Video 21253 kbps 1080p / 23,976 fps / 16:9 / Advanced Profile 3

AUDIO:

Codec Language Bitrate Deion
----- -------- ------- -----------
Dolby Digital Audio English 640 kbps 5.1 / 48 kHz / 640 kbps / DN -4dB

FILES:

Name Time In Length Size Total Bitrate
---- ------- ------ ---- -------------
00012.M2TS 0:00:00.000 0:01:05.565 188 264 448 22 971

CHAPTERS:

Number Time In Length Avg Video Rate Max 1-Sec Rate Max 1-Sec Time Max 5-Sec Rate Max 5-Sec Time Max 10Sec Rate Max 10Sec Time Avg Frame Size Max Frame Size Max Frame Time
------ ------- ------ -------------- -------------- -------------- -------------- -------------- -------------- -------------- -------------- -------------- --------------
1 0:00:00.000 0:01:05.565 21 253 kbps 44 309 kbps 00:00:06.297 26 032 kbps 00:00:24.315 23 969 kbps 00:00:05.880 110 803 bytes 397 180 bytes 00:00:18.393

STREAM DIAGNOSTICS:

File PID Type Codec Language Seconds Bitrate Bytes Packets
---- --- ---- ----- -------- -------------- -------------- ------------- -----
00012.M2TS 4113 (0x1011) 0xEA VC-1 65,440 21 293 174 181 683 947 579
00012.M2TS 4352 (0x1100) 0x81 AC3 eng (English) 65,440 641 5 245 440 30 735
QUICK SUMMARY:

Disc Title: Chernaya Molniya [ Black Lightning ] 2009 Blu-ray CEE VC-1 DTS-HD MA5.1 - d69a74
Disc Size: 34 988 567 764 bytes
Protection: AACS
BD-Java: Yes
Playlist: 00021.MPLS
Size: 188 264 448 bytes
Length: 0:01:05
Total Bitrate: 22,97 Mbps
Video: VC-1 Video / 21253 kbps / 1080p / 23,976 fps / 16:9 / Advanced Profile 3
Audio: English / Dolby Digital Audio / 5.1 / 48 kHz / 640 kbps / DN -4dB

********************
PLAYLIST: 00022.MPLS
********************
Код:
Total Video
Title Codec Length Movie Size Disc Size Bitrate Bitrate Main Audio Track Secondary Audio Track
----- ------ ------- -------------- -------------- ------- ------- ------------------ ---------------------
00022.MPLS VC-1 0:01:00 131 174 400 34 988 567 764 17,47 15,98 DD AC3 5.1 640Kbps
Код:
DISC INFO:

Disc Title: Chernaya Molniya [ Black Lightning ] 2009 Blu-ray CEE VC-1 DTS-HD MA5.1 - d69a74
Disc Size: 34 988 567 764 bytes
Protection: AACS
BD-Java: Yes
BDInfo: 0.5.4

PLAYLIST REPORT:

Name: 00022.MPLS
Length: 0:01:00 (h:m:s)
Size: 131 174 400 bytes
Total Bitrate: 17,47 Mbps

VIDEO:

Codec Bitrate Deion
----- ------- -----------
VC-1 Video 15983 kbps 1080p / 23,976 fps / 16:9 / Advanced Profile 3

AUDIO:

Codec Language Bitrate Deion
----- -------- ------- -----------
Dolby Digital Audio English 640 kbps 5.1 / 48 kHz / 640 kbps / DN -4dB

FILES:

Name Time In Length Size Total Bitrate
---- ------- ------ ---- -------------
00013.M2TS 0:00:00.000 0:01:00.060 131 174 400 17 472

CHAPTERS:

Number Time In Length Avg Video Rate Max 1-Sec Rate Max 1-Sec Time Max 5-Sec Rate Max 5-Sec Time Max 10Sec Rate Max 10Sec Time Avg Frame Size Max Frame Size Max Frame Time
------ ------- ------ -------------- -------------- -------------- -------------- -------------- -------------- -------------- -------------- -------------- --------------
1 0:00:00.000 0:01:00.060 15 983 kbps 26 690 kbps 00:00:49.924 21 386 kbps 00:00:48.840 19 146 kbps 00:00:45.503 83 331 bytes 270 055 bytes 00:00:27.944

STREAM DIAGNOSTICS:

File PID Type Codec Language Seconds Bitrate Bytes Packets
---- --- ---- ----- -------- -------------- -------------- ------------- -----
00013.M2TS 4113 (0x1011) 0xEA VC-1 59,935 16 017 119 996 007 653 015
00013.M2TS 4352 (0x1100) 0x81 AC3 eng (English) 59,935 641 4 805 120 28 155
QUICK SUMMARY:

Disc Title: Chernaya Molniya [ Black Lightning ] 2009 Blu-ray CEE VC-1 DTS-HD MA5.1 - d69a74
Disc Size: 34 988 567 764 bytes
Protection: AACS
BD-Java: Yes
Playlist: 00022.MPLS
Size: 131 174 400 bytes
Length: 0:01:00
Total Bitrate: 17,47 Mbps
Video: VC-1 Video / 15983 kbps / 1080p / 23,976 fps / 16:9 / Advanced Profile 3
Audio:English / Dolby Digital Audio / 5.1 / 48 kHz / 640 kbps / DN -4dB

********************
PLAYLIST: 00090.MPLS
********************
Код:
Total Video
Title Codec Length Movie Size Disc Size Bitrate Bitrate Main Audio Track Secondary Audio Track
----- ------ ------- -------------- -------------- ------- ------- ------------------ ---------------------
00090.MPLS MPEG-2 0:00:50 1 386 048 34 988 567 764 0,22 0,08
Код:
DISC INFO:

Disc Title: Chernaya Molniya [ Black Lightning ] 2009 Blu-ray CEE VC-1 DTS-HD MA5.1 - d69a74
Disc Size: 34 988 567 764 bytes
Protection: AACS
BD-Java: Yes
BDInfo: 0.5.4

PLAYLIST REPORT:

Name: 00090.MPLS
Length: 0:00:50 (h:m:s)
Size: 1 386 048 bytes
Total Bitrate: 0,22 Mbps

VIDEO:

Codec Bitrate Deion
----- ------- -----------
MPEG-2 Video 81 kbps 1080p / 23,976 fps / 16:9

FILES:

Name Time In Length Size Total Bitrate
---- ------- ------ ---- -------------
00157.M2TS 0:00:00.000 0:00:10.010 221 952 89
00157.M2TS 0:00:10.010 0:00:10.009 187 776 75
00157.M2TS 0:00:20.020 0:00:10.010 180 864 72
00157.M2TS 0:00:30.030 0:00:10.009 226 944 91
00157.M2TS 0:00:40.040 0:00:10.009 398 976 160
00157.M2TS 0:00:50.050 0:00:00.041 169 536 32 516

CHAPTERS:

Number Time In Length Avg Video Rate Max 1-Sec Rate Max 1-Sec Time Max 5-Sec Rate Max 5-Sec Time Max 10Sec Rate Max 10Sec Time Avg Frame Size Max Frame Size Max Frame Time
------ ------- ------ -------------- -------------- -------------- -------------- -------------- -------------- -------------- -------------- -------------- --------------
1 0:00:00.000 0:00:10.010 215 kbps 95 kbps 00:00:09.968 95 kbps 00:00:09.968 95 kbps 00:00:09.968 134 283 bytes 150 170 bytes 00:00:09.968
2 0:00:10.010 0:00:10.009 89 kbps 89 kbps 00:00:19.978 89 kbps 00:00:19.978 89 kbps 00:00:19.978 111 324 bytes 111 324 bytes 00:00:29.988
3 0:00:20.020 0:00:10.010 125 kbps 125 kbps 00:00:29.988 125 kbps 00:00:29.988 125 kbps 00:00:29.988 155 979 bytes 155 979 bytes 00:00:39.998
4 0:00:30.030 0:00:10.009 126 kbps 126 kbps 00:00:39.998 126 kbps 00:00:39.998 126 kbps 00:00:39.998 157 767 bytes 157 767 bytes 00:00:50.008
5 0:00:40.040 0:00:10.051 1 900 kbps 251 kbps 00:00:39.998 251 kbps 00:00:39.998 251 kbps 00:00:39.998 149 166 bytes 157 767 bytes 00:00:50.050

STREAM DIAGNOSTICS:

File PID Type Codec Language Seconds Bitrate Bytes Packets
---- --- ---- ----- -------- -------------- -------------- ------------- -----
00157.M2TS 4113 (0x1011) 0x02 MPEG-2 40,040 170 851 402 4 631
QUICK SUMMARY:

Disc Title: Chernaya Molniya [ Black Lightning ] 2009 Blu-ray CEE VC-1 DTS-HD MA5.1 - d69a74
Disc Size: 34 988 567 764 bytes
Protection: AACS
BD-Java: Yes
Playlist: 00090.MPLS
Size: 1 386 048 bytes
Length: 0:00:50
Total Bitrate: 0,22 Mbps
Video: MPEG-2 Video / 81 kbps / 1080p / 23,976 fps / 16:9

********************
PLAYLIST: 00085.MPLS
********************
Код:
Total Video
Title Codec Length Movie Size Disc Size Bitrate Bitrate Main Audio Track Secondary Audio Track
----- ------ ------- -------------- -------------- ------- ------- ------------------ ---------------------
00085.MPLS MPEG-2 0:00:25 737 856 34 988 567 764 0,24 0,09
Код:
DISC INFO:

Disc Title: Chernaya Molniya [ Black Lightning ] 2009 Blu-ray CEE VC-1 DTS-HD MA5.1 - d69a74
Disc Size: 34 988 567 764 bytes
Protection: AACS
BD-Java: Yes
BDInfo: 0.5.4

PLAYLIST REPORT:

Name: 00085.MPLS
Length: 0:00:25 (h:m:s)
Size: 737 856 bytes
Total Bitrate: 0,24 Mbps

VIDEO:

Codec Bitrate Deion
----- ------- -----------
MPEG-2 Video 88 kbps 1080p / 23,976 fps / 16:9

FILES:

Name Time In Length Size Total Bitrate
---- ------- ------ ---- -------------
00146.M2TS 0:00:00.000 0:00:10.010 221 952 89
00146.M2TS 0:00:10.010 0:00:10.009 187 584 75
00146.M2TS 0:00:20.020 0:00:05.004 229 440 184
00146.M2TS 0:00:25.025 0:00:00.041 98 880 18 965

CHAPTERS:

Number Time In Length Avg Video Rate Max 1-Sec Rate Max 1-Sec Time Max 5-Sec Rate Max 5-Sec Time Max 10Sec Rate Max 10Sec Time Avg Frame Size Max Frame Size Max Frame Time
------ ------- ------ -------------- -------------- -------------- -------------- -------------- -------------- -------------- -------------- -------------- --------------
1 0:00:00.000 0:00:10.010 214 kbps 94 kbps 00:00:09.968 94 kbps 00:00:09.968 94 kbps 00:00:09.968 134 160 bytes 150 170 bytes 00:00:09.968
2 0:00:10.010 0:00:10.009 75 kbps 150 kbps 00:00:19.978 150 kbps 00:00:19.978 0 kbps 00:00:00.000 93 848 bytes 93 848 bytes 00:00:24.983
3 0:00:20.020 0:00:05.046 1 080 kbps 298 kbps 00:00:19.978 298 kbps 00:00:19.978 224 kbps 00:00:14.931 97 320 bytes 118 149 bytes 00:00:19.978

STREAM DIAGNOSTICS:

File PID Type Codec Language Seconds Bitrate Bytes Packets
---- --- ---- ----- -------- -------------- -------------- ------------- -----
00146.M2TS 4113 (0x1011) 0x02 MPEG-2 15,015 243 456 015 2 482
QUICK SUMMARY:

Disc Title: Chernaya Molniya [ Black Lightning ] 2009 Blu-ray CEE VC-1 DTS-HD MA5.1 - d69a74
Disc Size: 34 988 567 764 bytes
Protection: AACS
BD-Java: Yes
Playlist: 00085.MPLS
Size: 737 856 bytes
Length: 0:00:25
Total Bitrate: 0,24 Mbps
Video: MPEG-2 Video / 88 kbps / 1080p / 23,976 fps / 16:9

********************
PLAYLIST: 00086.MPLS
********************
Код:
Total Video
Title Codec Length Movie Size Disc Size Bitrate Bitrate Main Audio Track Secondary Audio Track
----- ------ ------- -------------- -------------- ------- ------- ------------------ ---------------------
00086.MPLS MPEG-2 0:00:25 785 856 34 988 567 764 0,25 0,09
Код:
DISC INFO:

Disc Title: Chernaya Molniya [ Black Lightning ] 2009 Blu-ray CEE VC-1 DTS-HD MA5.1 - d69a74
Disc Size: 34 988 567 764 bytes
Protection: AACS
BD-Java: Yes
BDInfo: 0.5.4

PLAYLIST REPORT:

Name: 00086.MPLS
Length: 0:00:25 (h:m:s)
Size: 785 856 bytes
Total Bitrate: 0,25 Mbps

VIDEO:

Codec Bitrate Deion
----- ------- -----------
MPEG-2 Video 94 kbps 1080p / 23,976 fps / 16:9

FILES:

Name Time In Length Size Total Bitrate
---- ------- ------ ---- -------------
00148.M2TS 0:00:00.000 0:00:10.010 253 248 101
00148.M2TS 0:00:10.010 0:00:10.009 194 304 78
00148.M2TS 0:00:20.020 0:00:05.004 234 432 188
00148.M2TS 0:00:25.025 0:00:00.041 103 872 19 922

CHAPTERS:

Number Time In Length Avg Video Rate Max 1-Sec Rate Max 1-Sec Time Max 5-Sec Rate Max 5-Sec Time Max 10Sec Rate Max 10Sec Time Avg Frame Size Max Frame Size Max Frame Time
------ ------- ------ -------------- -------------- -------------- -------------- -------------- -------------- -------------- -------------- -------------- --------------
1 0:00:00.000 0:00:10.010 244 kbps 100 kbps 00:00:09.968 100 kbps 00:00:09.968 100 kbps 00:00:09.968 152 448 bytes 180 183 bytes 00:00:09.968
2 0:00:10.010 0:00:10.009 75 kbps 150 kbps 00:00:19.978 150 kbps 00:00:19.978 0 kbps 00:00:00.000 93 848 bytes 93 848 bytes 00:00:24.983
3 0:00:20.020 0:00:05.046 1 090 kbps 298 kbps 00:00:19.978 298 kbps 00:00:19.978 224 kbps 00:00:14.931 98 257 bytes 124 712 bytes 00:00:19.978

STREAM DIAGNOSTICS:

File PID Type Codec Language Seconds Bitrate Bytes Packets
---- --- ---- ----- -------- -------------- -------------- ------------- -----
00148.M2TS 4113 (0x1011) 0x02 MPEG-2 15,015 262 492 591 2 680
QUICK SUMMARY:

Disc Title: Chernaya Molniya [ Black Lightning ] 2009 Blu-ray CEE VC-1 DTS-HD MA5.1 - d69a74
Disc Size: 34 988 567 764 bytes
Protection: AACS
BD-Java: Yes
Playlist: 00086.MPLS
Size: 785 856 bytes
Length: 0:00:25
Total Bitrate: 0,25 Mbps
Video: MPEG-2 Video / 94 kbps / 1080p / 23,976 fps / 16:9

********************
PLAYLIST: 00088.MPLS
********************
Код:
Total Video
Title Codec Length Movie Size Disc Size Bitrate Bitrate Main Audio Track Secondary Audio Track
----- ------ ------- -------------- -------------- ------- ------- ------------------ ---------------------
00088.MPLS MPEG-2 0:00:25 738 240 34 988 567 764 0,24 0,09
Код:
DISC INFO:

Disc Title: Chernaya Molniya [ Black Lightning ] 2009 Blu-ray CEE VC-1 DTS-HD MA5.1 - d69a74
Disc Size: 34 988 567 764 bytes
Protection: AACS
BD-Java: Yes
BDInfo: 0.5.4

PLAYLIST REPORT:

Name: 00088.MPLS
Length: 0:00:25 (h:m:s)
Size: 738 240 bytes
Total Bitrate: 0,24 Mbps

VIDEO:

Codec Bitrate Deion
----- ------- -----------
MPEG-2 Video 88 kbps 1080p / 23,976 fps / 16:9

FILES:

Name Time In Length Size Total Bitrate
---- ------- ------ ---- -------------
00152.M2TS 0:00:00.000 0:00:10.010 221 952 89
00152.M2TS 0:00:10.010 0:00:10.009 187 200 75
00152.M2TS 0:00:20.020 0:00:05.004 229 824 184
00152.M2TS 0:00:25.025 0:00:00.041 99 264 19 038

CHAPTERS:

Number Time In Length Avg Video Rate Max 1-Sec Rate Max 1-Sec Time Max 5-Sec Rate Max 5-Sec Time Max 10Sec Rate Max 10Sec Time Avg Frame Size Max Frame Size Max Frame Time
------ ------- ------ -------------- -------------- -------------- -------------- -------------- -------------- -------------- -------------- -------------- --------------
1 0:00:00.000 0:00:10.010 214 kbps 94 kbps 00:00:09.968 94 kbps 00:00:09.968 94 kbps 00:00:09.968 133 980 bytes 150 170 bytes 00:00:09.968
2 0:00:10.010 0:00:10.009 75 kbps 150 kbps 00:00:19.978 150 kbps 00:00:19.978 0 kbps 00:00:00.000 93 848 bytes 93 848 bytes 00:00:24.983
3 0:00:20.020 0:00:05.046 1 079 kbps 298 kbps 00:00:19.978 298 kbps 00:00:19.978 224 kbps 00:00:14.931 97 268 bytes 117 789 bytes 00:00:19.978

STREAM DIAGNOSTICS:

File PID Type Codec Language Seconds Bitrate Bytes Packets
---- --- ---- ----- -------- -------------- -------------- ------------- -----
00152.M2TS 4113 (0x1011) 0x02 MPEG-2 15,015 243 455 655 2 480
QUICK SUMMARY:

Disc Title: Chernaya Molniya [ Black Lightning ] 2009 Blu-ray CEE VC-1 DTS-HD MA5.1 - d69a74
Disc Size: 34 988 567 764 bytes
Protection: AACS
BD-Java: Yes
Playlist: 00088.MPLS
Size: 738 240 bytes
Length: 0:00:25
Total Bitrate: 0,24 Mbps
Video: MPEG-2 Video / 88 kbps / 1080p / 23,976 fps / 16:9

********************
PLAYLIST: 00089.MPLS
********************
Код:
Total Video
Title Codec Length Movie Size Disc Size Bitrate Bitrate Main Audio Track Secondary Audio Track
----- ------ ------- -------------- -------------- ------- ------- ------------------ ---------------------
00089.MPLS MPEG-2 0:00:25 731 328 34 988 567 764 0,23 0,09
Код:
DISC INFO:

Disc Title: Chernaya Molniya [ Black Lightning ] 2009 Blu-ray CEE VC-1 DTS-HD MA5.1 - d69a74
Disc Size: 34 988 567 764 bytes
Protection: AACS
BD-Java: Yes
BDInfo: 0.5.4

PLAYLIST REPORT:

Name: 00089.MPLS
Length: 0:00:25 (h:m:s)
Size: 731 328 bytes
Total Bitrate: 0,23 Mbps

VIDEO:

Codec Bitrate Deion
----- ------- -----------
MPEG-2 Video 87 kbps 1080p / 23,976 fps / 16:9

FILES:

Name Time In Length Size Total Bitrate
---- ------- ------ ---- -------------
00147.M2TS 0:00:00.000 0:00:10.010 210 624 84
00147.M2TS 0:00:10.010 0:00:10.009 193 152 77
00147.M2TS 0:00:20.020 0:00:05.004 229 056 184
00147.M2TS 0:00:25.025 0:00:00.041 98 496 18 891

CHAPTERS:

Number Time In Length Avg Video Rate Max 1-Sec Rate Max 1-Sec Time Max 5-Sec Rate Max 5-Sec Time Max 10Sec Rate Max 10Sec Time Avg Frame Size Max Frame Size Max Frame Time
------ ------- ------ -------------- -------------- -------------- -------------- -------------- -------------- -------------- -------------- -------------- --------------
1 0:00:00.000 0:00:10.010 210 kbps 99 kbps 00:00:09.968 99 kbps 00:00:09.968 99 kbps 00:00:09.968 131 464 bytes 139 449 bytes 00:00:09.968
2 0:00:10.010 0:00:10.009 75 kbps 150 kbps 00:00:19.978 150 kbps 00:00:19.978 0 kbps 00:00:00.000 93 848 bytes 93 848 bytes 00:00:24.983
3 0:00:20.020 0:00:05.046 1 088 kbps 298 kbps 00:00:19.978 298 kbps 00:00:19.978 224 kbps 00:00:14.931 98 081 bytes 123 479 bytes 00:00:19.978

STREAM DIAGNOSTICS:

File PID Type Codec Language Seconds Bitrate Bytes Packets
---- --- ---- ----- -------- -------------- -------------- ------------- -----
00147.M2TS 4113 (0x1011) 0x02 MPEG-2 15,015 240 450 624 2 452
QUICK SUMMARY:

Disc Title: Chernaya Molniya [ Black Lightning ] 2009 Blu-ray CEE VC-1 DTS-HD MA5.1 - d69a74
Disc Size: 34 988 567 764 bytes
Protection: AACS
BD-Java: Yes
Playlist: 00089.MPLS
Size: 731 328 bytes
Length: 0:00:25
Total Bitrate: 0,23 Mbps
Video: MPEG-2 Video / 87 kbps / 1080p / 23,976 fps / 16:9

********************
PLAYLIST: 00091.MPLS
********************
Код:
Total Video
Title Codec Length Movie Size Disc Size Bitrate Bitrate Main Audio Track Secondary Audio Track
----- ------ ------- -------------- -------------- ------- ------- ------------------ ---------------------
00091.MPLS MPEG-2 0:00:25 737 856 34 988 567 764 0,24 0,09
Код:
DISC INFO:

Disc Title: Chernaya Molniya [ Black Lightning ] 2009 Blu-ray CEE VC-1 DTS-HD MA5.1 - d69a74
Disc Size: 34 988 567 764 bytes
Protection: AACS
BD-Java: Yes
BDInfo: 0.5.4

PLAYLIST REPORT:

Name: 00091.MPLS
Length: 0:00:25 (h:m:s)
Size: 737 856 bytes
Total Bitrate: 0,24 Mbps

VIDEO:

Codec Bitrate Deion
----- ------- -----------
MPEG-2 Video 88 kbps 1080p / 23,976 fps / 16:9

FILES:

Name Time In Length Size Total Bitrate
---- ------- ------ ---- -------------
50134.M2TS 0:00:00.000 0:00:10.010 221 952 89
50134.M2TS 0:00:10.010 0:00:10.009 187 584 75
50134.M2TS 0:00:20.020 0:00:05.004 229 440 184
50134.M2TS 0:00:25.025 0:00:00.041 98 880 18 965

CHAPTERS:

Number Time In Length Avg Video Rate Max 1-Sec Rate Max 1-Sec Time Max 5-Sec Rate Max 5-Sec Time Max 10Sec Rate Max 10Sec Time Avg Frame Size Max Frame Size Max Frame Time
------ ------- ------ -------------- -------------- -------------- -------------- -------------- -------------- -------------- -------------- -------------- --------------
1 0:00:00.000 0:00:10.010 214 kbps 94 kbps 00:00:09.968 94 kbps 00:00:09.968 94 kbps 00:00:09.968 134 160 bytes 150 170 bytes 00:00:09.968
2 0:00:10.010 0:00:10.009 75 kbps 150 kbps 00:00:19.978 150 kbps 00:00:19.978 0 kbps 00:00:00.000 93 848 bytes 93 848 bytes 00:00:24.983
3 0:00:20.020 0:00:05.046 1 080 kbps 298 kbps 00:00:19.978 298 kbps 00:00:19.978 224 kbps 00:00:14.931 97 320 bytes 118 149 bytes 00:00:19.978

STREAM DIAGNOSTICS:

File PID Type Codec Language Seconds Bitrate Bytes Packets
---- --- ---- ----- -------- -------------- -------------- ------------- -----
50134.M2TS 4113 (0x1011) 0x02 MPEG-2 15,015 243 456 015 2 482
QUICK SUMMARY:

Disc Title: Chernaya Molniya [ Black Lightning ] 2009 Blu-ray CEE VC-1 DTS-HD MA5.1 - d69a74
Disc Size: 34 988 567 764 bytes
Protection: AACS
BD-Java: Yes
Playlist: 00091.MPLS
Size: 737 856 bytes
Length: 0:00:25
Total Bitrate: 0,24 Mbps
Video: MPEG-2 Video / 88 kbps / 1080p / 23,976 fps / 16:9

********************
PLAYLIST: 00092.MPLS
********************
Код:
Total Video
Title Codec Length Movie Size Disc Size Bitrate Bitrate Main Audio Track Secondary Audio Track
----- ------ ------- -------------- -------------- ------- ------- ------------------ ---------------------
00092.MPLS MPEG-2 0:00:25 717 120 34 988 567 764 0,23 0,08
Код:
DISC INFO:

Disc Title: Chernaya Molniya [ Black Lightning ] 2009 Blu-ray CEE VC-1 DTS-HD MA5.1 - d69a74
Disc Size: 34 988 567 764 bytes
Protection: AACS
BD-Java: Yes
BDInfo: 0.5.4

PLAYLIST REPORT:

Name: 00092.MPLS
Length: 0:00:25 (h:m:s)
Size: 717 120 bytes
Total Bitrate: 0,23 Mbps

VIDEO:

Codec Bitrate Deion
----- ------- -----------
MPEG-2 Video 84 kbps 1080p / 23,976 fps / 16:9

FILES:

Name Time In Length Size Total Bitrate
---- ------- ------ ---- -------------
00150.M2TS 0:00:00.000 0:00:10.010 204 096 82
00150.M2TS 0:00:10.010 0:00:10.009 177 024 71
00150.M2TS 0:00:20.020 0:00:05.004 233 280 187
00150.M2TS 0:00:25.025 0:00:00.041 102 720 19 701

CHAPTERS:

Number Time In Length Avg Video Rate Max 1-Sec Rate Max 1-Sec Time Max 5-Sec Rate Max 5-Sec Time Max 10Sec Rate Max 10Sec Time Avg Frame Size Max Frame Size Max Frame Time
------ ------- ------ -------------- -------------- -------------- -------------- -------------- -------------- -------------- -------------- -------------- --------------
1 0:00:00.000 0:00:10.010 193 kbps 86 kbps 00:00:09.968 86 kbps 00:00:09.968 86 kbps 00:00:09.968 120 532 bytes 133 056 bytes 00:00:09.968
2 0:00:10.010 0:00:10.009 75 kbps 150 kbps 00:00:19.978 150 kbps 00:00:19.978 0 kbps 00:00:00.000 93 848 bytes 93 848 bytes 00:00:24.983
3 0:00:20.020 0:00:05.046 1 064 kbps 298 kbps 00:00:19.978 298 kbps 00:00:19.978 224 kbps 00:00:14.931 95 871 bytes 108 007 bytes 00:00:19.978

STREAM DIAGNOSTICS:

File PID Type Codec Language Seconds Bitrate Bytes Packets
---- --- ---- ----- -------- -------------- -------------- ------------- -----
00150.M2TS 4113 (0x1011) 0x02 MPEG-2 15,015 228 428 759 2 334
QUICK SUMMARY:

Disc Title: Chernaya Molniya [ Black Lightning ] 2009 Blu-ray CEE VC-1 DTS-HD MA5.1 - d69a74
Disc Size: 34 988 567 764 bytes
Protection: AACS
BD-Java: Yes
Playlist: 00092.MPLS
Size: 717 120 bytes
Length: 0:00:25
Total Bitrate: 0,23 Mbps
Video: MPEG-2 Video / 84 kbps / 1080p / 23,976 fps / 16:9

********************
PLAYLIST: 00093.MPLS
********************
Код:
Total Video
Title Codec Length Movie Size Disc Size Bitrate Bitrate Main Audio Track Secondary Audio Track
----- ------ ------- -------------- -------------- ------- ------- ------------------ ---------------------
00093.MPLS MPEG-2 0:00:25 747 456 34 988 567 764 0,24 0,09
Код:
DISC INFO:

Disc Title: Chernaya Molniya [ Black Lightning ] 2009 Blu-ray CEE VC-1 DTS-HD MA5.1 - d69a74
Disc Size: 34 988 567 764 bytes
Protection: AACS
BD-Java: Yes
BDInfo: 0.5.4

PLAYLIST REPORT:

Name: 00093.MPLS
Length: 0:00:25 (h:m:s)
Size: 747 456 bytes
Total Bitrate: 0,24 Mbps

VIDEO:

Codec Bitrate Deion
----- ------- -----------
MPEG-2 Video 88 kbps 1080p / 23,976 fps / 16:9

FILES:

Name Time In Length Size Total Bitrate
---- ------- ------ ---- -------------
00151.M2TS 0:00:00.000 0:00:10.010 240 384 96
00151.M2TS 0:00:10.010 0:00:10.009 171 840 69
00151.M2TS 0:00:20.020 0:00:05.004 232 896 187
00151.M2TS 0:00:25.025 0:00:00.041 102 336 19 628

CHAPTERS:

Number Time In Length Avg Video Rate Max 1-Sec Rate Max 1-Sec Time Max 5-Sec Rate Max 5-Sec Time Max 10Sec Rate Max 10Sec Time Avg Frame Size Max Frame Size Max Frame Time
------ ------- ------ -------------- -------------- -------------- -------------- -------------- -------------- -------------- -------------- -------------- --------------
1 0:00:00.000 0:00:10.010 217 kbps 82 kbps 00:00:09.968 82 kbps 00:00:09.968 82 kbps 00:00:09.968 135 502 bytes 167 857 bytes 00:00:09.968
2 0:00:10.010 0:00:10.009 75 kbps 150 kbps 00:00:19.978 150 kbps 00:00:19.978 0 kbps 00:00:00.000 93 848 bytes 93 848 bytes 00:00:24.983
3 0:00:20.020 0:00:05.046 1 056 kbps 298 kbps 00:00:19.978 298 kbps 00:00:19.978 224 kbps 00:00:14.931 95 176 bytes 103 146 bytes 00:00:19.978

STREAM DIAGNOSTICS:

File PID Type Codec Language Seconds Bitrate Bytes Packets
---- --- ---- ----- -------- -------------- -------------- ------------- -----
00151.M2TS 4113 (0x1011) 0x02 MPEG-2 15,015 244 458 699 2 496
QUICK SUMMARY:

Disc Title: Chernaya Molniya [ Black Lightning ] 2009 Blu-ray CEE VC-1 DTS-HD MA5.1 - d69a74
Disc Size: 34 988 567 764 bytes
Protection: AACS
BD-Java: Yes
Playlist: 00093.MPLS
Size: 747 456 bytes
Length: 0:00:25
Total Bitrate: 0,24 Mbps
Video: MPEG-2 Video / 88 kbps / 1080p / 23,976 fps / 16:9

********************
PLAYLIST: 00094.MPLS
********************
Код:
Total Video
Title Codec Length Movie Size Disc Size Bitrate Bitrate Main Audio Track Secondary Audio Track
----- ------ ------- -------------- -------------- ------- ------- ------------------ ---------------------
00094.MPLS MPEG-2 0:00:25 737 856 34 988 567 764 0,24 0,09
Код:
DISC INFO:

Disc Title: Chernaya Molniya [ Black Lightning ] 2009 Blu-ray CEE VC-1 DTS-HD MA5.1 - d69a74
Disc Size: 34 988 567 764 bytes
Protection: AACS
BD-Java: Yes
BDInfo: 0.5.4

PLAYLIST REPORT:

Name: 00094.MPLS
Length: 0:00:25 (h:m:s)
Size: 737 856 bytes
Total Bitrate: 0,24 Mbps

VIDEO:

Codec Bitrate Deion
----- ------- -----------
MPEG-2 Video 88 kbps 1080p / 23,976 fps / 16:9

FILES:

Name Time In Length Size Total Bitrate
---- ------- ------ ---- -------------
50135.M2TS 0:00:00.000 0:00:10.010 221 952 89
50135.M2TS 0:00:10.010 0:00:10.009 187 584 75
50135.M2TS 0:00:20.020 0:00:05.004 229 440 184
50135.M2TS 0:00:25.025 0:00:00.041 98 880 18 965

CHAPTERS:

Number Time In Length Avg Video Rate Max 1-Sec Rate Max 1-Sec Time Max 5-Sec Rate Max 5-Sec Time Max 10Sec Rate Max 10Sec Time Avg Frame Size Max Frame Size Max Frame Time
------ ------- ------ -------------- -------------- -------------- -------------- -------------- -------------- -------------- -------------- -------------- --------------
1 0:00:00.000 0:00:10.010 214 kbps 94 kbps 00:00:09.968 94 kbps 00:00:09.968 94 kbps 00:00:09.968 134 160 bytes 150 170 bytes 00:00:09.968
2 0:00:10.010 0:00:10.009 75 kbps 150 kbps 00:00:19.978 150 kbps 00:00:19.978 0 kbps 00:00:00.000 93 848 bytes 93 848 bytes 00:00:24.983
3 0:00:20.020 0:00:05.046 1 080 kbps 298 kbps 00:00:19.978 298 kbps 00:00:19.978 224 kbps 00:00:14.931 97 320 bytes 118 149 bytes 00:00:19.978

STREAM DIAGNOSTICS:

File PID Type Codec Language Seconds Bitrate Bytes Packets
---- --- ---- ----- -------- -------------- -------------- ------------- -----
50135.M2TS 4113 (0x1011) 0x02 MPEG-2 15,015 243 456 015 2 482
QUICK SUMMARY:

Disc Title: Chernaya Molniya [ Black Lightning ] 2009 Blu-ray CEE VC-1 DTS-HD MA5.1 - d69a74
Disc Size: 34 988 567 764 bytes
Protection: AACS
BD-Java: Yes
Playlist: 00094.MPLS
Size: 737 856 bytes
Length: 0:00:25
Total Bitrate: 0,24 Mbps
Video: MPEG-2 Video / 88 kbps / 1080p / 23,976 fps / 16:9

********************
PLAYLIST: 00095.MPLS
********************
Код:
Total Video
Title Codec Length Movie Size Disc Size Bitrate Bitrate Main Audio Track Secondary Audio Track
----- ------ ------- -------------- -------------- ------- ------- ------------------ ---------------------
00095.MPLS MPEG-2 0:00:25 748 992 34 988 567 764 0,24 0,09
Код:
DISC INFO:

Disc Title: Chernaya Molniya [ Black Lightning ] 2009 Blu-ray CEE VC-1 DTS-HD MA5.1 - d69a74
Disc Size: 34 988 567 764 bytes
Protection: AACS
BD-Java: Yes
BDInfo: 0.5.4

PLAYLIST REPORT:

Name: 00095.MPLS
Length: 0:00:25 (h:m:s)
Size: 748 992 bytes
Total Bitrate: 0,24 Mbps

VIDEO:

Codec Bitrate Deion
----- ------- -----------
MPEG-2 Video 88 kbps 1080p / 23,976 fps / 16:9

FILES:

Name Time In Length Size Total Bitrate
---- ------- ------ ---- -------------
00154.M2TS 0:00:00.000 0:00:10.010 242 880 97
00154.M2TS 0:00:10.010 0:00:10.009 167 808 67
00154.M2TS 0:00:20.020 0:00:05.004 234 432 188
00154.M2TS 0:00:25.025 0:00:00.041 103 872 19 922

CHAPTERS:

Number Time In Length Avg Video Rate Max 1-Sec Rate Max 1-Sec Time Max 5-Sec Rate Max 5-Sec Time Max 10Sec Rate Max 10Sec Time Avg Frame Size Max Frame Size Max Frame Time
------ ------- ------ -------------- -------------- -------------- -------------- -------------- -------------- -------------- -------------- -------------- --------------
1 0:00:00.000 0:00:10.010 215 kbps 79 kbps 00:00:09.968 79 kbps 00:00:09.968 79 kbps 00:00:09.968 134 720 bytes 170 209 bytes 00:00:09.968
2 0:00:10.010 0:00:10.009 75 kbps 150 kbps 00:00:19.978 150 kbps 00:00:19.978 0 kbps 00:00:00.000 93 848 bytes 93 848 bytes 00:00:24.983
3 0:00:20.020 0:00:05.046 1 050 kbps 298 kbps 00:00:19.978 298 kbps 00:00:19.978 224 kbps 00:00:14.931 94 617 bytes 99 231 bytes 00:00:19.978

STREAM DIAGNOSTICS:

File PID Type Codec Language Seconds Bitrate Bytes Packets
---- --- ---- ----- -------- -------------- -------------- ------------- -----
00154.M2TS 4113 (0x1011) 0x02 MPEG-2 15,015 244 457 136 2 488
QUICK SUMMARY:

Disc Title: Chernaya Molniya [ Black Lightning ] 2009 Blu-ray CEE VC-1 DTS-HD MA5.1 - d69a74
Disc Size: 34 988 567 764 bytes
Protection: AACS
BD-Java: Yes
Playlist: 00095.MPLS
Size: 748 992 bytes
Length: 0:00:25
Total Bitrate: 0,24 Mbps
Video: MPEG-2 Video / 88 kbps / 1080p / 23,976 fps / 16:9

********************
PLAYLIST: 00096.MPLS
********************
Код:
Total Video
Title Codec Length Movie Size Disc Size Bitrate Bitrate Main Audio Track Secondary Audio Track
----- ------ ------- -------------- -------------- ------- ------- ------------------ ---------------------
00096.MPLS MPEG-2 0:00:25 740 352 34 988 567 764 0,24 0,09
Код:
DISC INFO:

Disc Title: Chernaya Molniya [ Black Lightning ] 2009 Blu-ray CEE VC-1 DTS-HD MA5.1 - d69a74
Disc Size: 34 988 567 764 bytes
Protection: AACS
BD-Java: Yes
BDInfo: 0.5.4

PLAYLIST REPORT:

Name: 00096.MPLS
Length: 0:00:25 (h:m:s)
Size: 740 352 bytes
Total Bitrate: 0,24 Mbps

VIDEO:

Codec Bitrate Deion
----- ------- -----------
MPEG-2 Video 88 kbps 1080p / 23,976 fps / 16:9

FILES:

Name Time In Length Size Total Bitrate
---- ------- ------ ---- -------------
00155.M2TS 0:00:00.000 0:00:10.010 233 664 94
00155.M2TS 0:00:10.010 0:00:10.009 173 376 69
00155.M2TS 0:00:20.020 0:00:05.004 231 936 186
00155.M2TS 0:00:25.025 0:00:00.041 101 376 19 443

CHAPTERS:

Number Time In Length Avg Video Rate Max 1-Sec Rate Max 1-Sec Time Max 5-Sec Rate Max 5-Sec Time Max 10Sec Rate Max 10Sec Time Avg Frame Size Max Frame Size Max Frame Time
------ ------- ------ -------------- -------------- -------------- -------------- -------------- -------------- -------------- -------------- -------------- --------------
1 0:00:00.000 0:00:10.010 213 kbps 84 kbps 00:00:09.968 84 kbps 00:00:09.968 84 kbps 00:00:09.968 133 040 bytes 161 411 bytes 00:00:09.968
2 0:00:10.010 0:00:10.009 75 kbps 150 kbps 00:00:19.978 150 kbps 00:00:19.978 0 kbps 00:00:00.000 93 848 bytes 93 848 bytes 00:00:24.983
3 0:00:20.020 0:00:05.046 1 059 kbps 298 kbps 00:00:19.978 298 kbps 00:00:19.978 224 kbps 00:00:14.931 95 394 bytes 104 668 bytes 00:00:19.978

STREAM DIAGNOSTICS:

File PID Type Codec Language Seconds Bitrate Bytes Packets
---- --- ---- ----- -------- -------------- -------------- ------------- -----
00155.M2TS 4113 (0x1011) 0x02 MPEG-2 15,015 242 453 775 2 469
QUICK SUMMARY:

Disc Title: Chernaya Molniya [ Black Lightning ] 2009 Blu-ray CEE VC-1 DTS-HD MA5.1 - d69a74
Disc Size: 34 988 567 764 bytes
Protection: AACS
BD-Java: Yes
Playlist: 00096.MPLS
Size: 740 352 bytes
Length: 0:00:25
Total Bitrate: 0,24 Mbps
Video: MPEG-2 Video / 88 kbps / 1080p / 23,976 fps / 16:9

********************
PLAYLIST: 00097.MPLS
********************
Код:
Total Video
Title Codec Length Movie Size Disc Size Bitrate Bitrate Main Audio Track Secondary Audio Track
----- ------ ------- -------------- -------------- ------- ------- ------------------ ---------------------
00097.MPLS MPEG-2 0:00:25 737 856 34 988 567 764 0,24 0,09
Код:
DISC INFO:

Disc Title: Chernaya Molniya [ Black Lightning ] 2009 Blu-ray CEE VC-1 DTS-HD MA5.1 - d69a74
Disc Size: 34 988 567 764 bytes
Protection: AACS
BD-Java: Yes
BDInfo: 0.5.4

PLAYLIST REPORT:

Name: 00097.MPLS
Length: 0:00:25 (h:m:s)
Size: 737 856 bytes
Total Bitrate: 0,24 Mbps

VIDEO:

Codec Bitrate Deion
----- ------- -----------
MPEG-2 Video 88 kbps 1080p / 23,976 fps / 16:9

FILES:

Name Time In Length Size Total Bitrate
---- ------- ------ ---- -------------
50136.M2TS 0:00:00.000 0:00:10.010 221 952 89
50136.M2TS 0:00:10.010 0:00:10.009 187 584 75
50136.M2TS 0:00:20.020 0:00:05.004 229 440 184
50136.M2TS 0:00:25.025 0:00:00.041 98 880 18 965

CHAPTERS:

Number Time In Length Avg Video Rate Max 1-Sec Rate Max 1-Sec Time Max 5-Sec Rate Max 5-Sec Time Max 10Sec Rate Max 10Sec Time Avg Frame Size Max Frame Size Max Frame Time
------ ------- ------ -------------- -------------- -------------- -------------- -------------- -------------- -------------- -------------- -------------- --------------
1 0:00:00.000 0:00:10.010 214 kbps 94 kbps 00:00:09.968 94 kbps 00:00:09.968 94 kbps 00:00:09.968 134 160 bytes 150 170 bytes 00:00:09.968
2 0:00:10.010 0:00:10.009 75 kbps 150 kbps 00:00:19.978 150 kbps 00:00:19.978 0 kbps 00:00:00.000 93 848 bytes 93 848 bytes 00:00:24.983
3 0:00:20.020 0:00:05.046 1 080 kbps 298 kbps 00:00:19.978 298 kbps 00:00:19.978 224 kbps 00:00:14.931 97 320 bytes 118 149 bytes 00:00:19.978

STREAM DIAGNOSTICS:

File PID Type Codec Language Seconds Bitrate Bytes Packets
---- --- ---- ----- -------- -------------- -------------- ------------- -----
50136.M2TS 4113 (0x1011) 0x02 MPEG-2 15,015 243 456 015 2 482
QUICK SUMMARY:

Disc Title: Chernaya Molniya [ Black Lightning ] 2009 Blu-ray CEE VC-1 DTS-HD MA5.1 - d69a74
Disc Size: 34 988 567 764 bytes
Protection: AACS
BD-Java: Yes
Playlist: 00097.MPLS
Size: 737 856 bytes
Length: 0:00:25
Total Bitrate: 0,24 Mbps
Video: MPEG-2 Video / 88 kbps / 1080p / 23,976 fps / 16:9

********************
PLAYLIST: 00098.MPLS
********************
Код:
Total Video
Title Codec Length Movie Size Disc Size Bitrate Bitrate Main Audio Track Secondary Audio Track
----- ------ ------- -------------- -------------- ------- ------- ------------------ ---------------------
00098.MPLS MPEG-2 0:00:25 737 856 34 988 567 764 0,24 0,09
Код:
DISC INFO:

Disc Title: Chernaya Molniya [ Black Lightning ] 2009 Blu-ray CEE VC-1 DTS-HD MA5.1 - d69a74
Disc Size: 34 988 567 764 bytes
Protection: AACS
BD-Java: Yes
BDInfo: 0.5.4

PLAYLIST REPORT:

Name: 00098.MPLS
Length: 0:00:25 (h:m:s)
Size: 737 856 bytes
Total Bitrate: 0,24 Mbps

VIDEO:

Codec Bitrate Deion
----- ------- -----------
MPEG-2 Video 88 kbps 1080p / 23,976 fps / 16:9

FILES:

Name Time In Length Size Total Bitrate
---- ------- ------ ---- -------------
50137.M2TS 0:00:00.000 0:00:10.010 221 952 89
50137.M2TS 0:00:10.010 0:00:10.009 187 584 75
50137.M2TS 0:00:20.020 0:00:05.004 229 440 184
50137.M2TS 0:00:25.025 0:00:00.041 98 880 18 965

CHAPTERS:

Number Time In Length Avg Video Rate Max 1-Sec Rate Max 1-Sec Time Max 5-Sec Rate Max 5-Sec Time Max 10Sec Rate Max 10Sec Time Avg Frame Size Max Frame Size Max Frame Time
------ ------- ------ -------------- -------------- -------------- -------------- -------------- -------------- -------------- -------------- -------------- --------------
1 0:00:00.000 0:00:10.010 214 kbps 94 kbps 00:00:09.968 94 kbps 00:00:09.968 94 kbps 00:00:09.968 134 160 bytes 150 170 bytes 00:00:09.968
2 0:00:10.010 0:00:10.009 75 kbps 150 kbps 00:00:19.978 150 kbps 00:00:19.978 0 kbps 00:00:00.000 93 848 bytes 93 848 bytes 00:00:24.983
3 0:00:20.020 0:00:05.046 1 080 kbps 298 kbps 00:00:19.978 298 kbps 00:00:19.978 224 kbps 00:00:14.931 97 320 bytes 118 149 bytes 00:00:19.978

STREAM DIAGNOSTICS:

File PID Type Codec Language Seconds Bitrate Bytes Packets
---- --- ---- ----- -------- -------------- -------------- ------------- -----
50137.M2TS 4113 (0x1011) 0x02 MPEG-2 15,015 243 456 015 2 482
QUICK SUMMARY:

Disc Title: Chernaya Molniya [ Black Lightning ] 2009 Blu-ray CEE VC-1 DTS-HD MA5.1 - d69a74
Disc Size: 34 988 567 764 bytes
Protection: AACS
BD-Java: Yes
Playlist: 00098.MPLS
Size: 737 856 bytes
Length: 0:00:25
Total Bitrate: 0,24 Mbps
Video: MPEG-2 Video / 88 kbps / 1080p / 23,976 fps / 16:9

********************
PLAYLIST: 00099.MPLS
********************
Код:
Total Video
Title Codec Length Movie Size Disc Size Bitrate Bitrate Main Audio Track Secondary Audio Track
----- ------ ------- -------------- -------------- ------- ------- ------------------ ---------------------
00099.MPLS MPEG-2 0:00:25 737 856 34 988 567 764 0,24 0,09
Код:
DISC INFO:

Disc Title: Chernaya Molniya [ Black Lightning ] 2009 Blu-ray CEE VC-1 DTS-HD MA5.1 - d69a74
Disc Size: 34 988 567 764 bytes
Protection: AACS
BD-Java: Yes
BDInfo: 0.5.4

PLAYLIST REPORT:

Name: 00099.MPLS
Length: 0:00:25 (h:m:s)
Size: 737 856 bytes
Total Bitrate: 0,24 Mbps

VIDEO:

Codec Bitrate Deion
----- ------- -----------
MPEG-2 Video 88 kbps 1080p / 23,976 fps / 16:9

FILES:

Name Time In Length Size Total Bitrate
---- ------- ------ ---- -------------
50138.M2TS 0:00:00.000 0:00:10.010 221 952 89
50138.M2TS 0:00:10.010 0:00:10.009 187 584 75
50138.M2TS 0:00:20.020 0:00:05.004 229 440 184
50138.M2TS 0:00:25.025 0:00:00.041 98 880 18 965

CHAPTERS:

Number Time In Length Avg Video Rate Max 1-Sec Rate Max 1-Sec Time Max 5-Sec Rate Max 5-Sec Time Max 10Sec Rate Max 10Sec Time Avg Frame Size Max Frame Size Max Frame Time
------ ------- ------ -------------- -------------- -------------- -------------- -------------- -------------- -------------- -------------- -------------- --------------
1 0:00:00.000 0:00:10.010 214 kbps 94 kbps 00:00:09.968 94 kbps 00:00:09.968 94 kbps 00:00:09.968 134 160 bytes 150 170 bytes 00:00:09.968
2 0:00:10.010 0:00:10.009 75 kbps 150 kbps 00:00:19.978 150 kbps 00:00:19.978 0 kbps 00:00:00.000 93 848 bytes 93 848 bytes 00:00:24.983
3 0:00:20.020 0:00:05.046 1 080 kbps 298 kbps 00:00:19.978 298 kbps 00:00:19.978 224 kbps 00:00:14.931 97 320 bytes 118 149 bytes 00:00:19.978

STREAM DIAGNOSTICS:

File PID Type Codec Language Seconds Bitrate Bytes Packets
---- --- ---- ----- -------- -------------- -------------- ------------- -----
50138.M2TS 4113 (0x1011) 0x02 MPEG-2 15,015 243 456 015 2 482
QUICK SUMMARY:

Disc Title: Chernaya Molniya [ Black Lightning ] 2009 Blu-ray CEE VC-1 DTS-HD MA5.1 - d69a74
Disc Size: 34 988 567 764 bytes
Protection: AACS
BD-Java: Yes
Playlist: 00099.MPLS
Size: 737 856 bytes
Length: 0:00:25
Total Bitrate: 0,24 Mbps
Video: MPEG-2 Video / 88 kbps / 1080p / 23,976 fps / 16:9

********************
PLAYLIST: 00100.MPLS
********************
Код:
Total Video
Title Codec Length Movie Size Disc Size Bitrate Bitrate Main Audio Track Secondary Audio Track
----- ------ ------- -------------- -------------- ------- ------- ------------------ ---------------------
00100.MPLS MPEG-2 0:00:25 737 856 34 988 567 764 0,24 0,09
Код:
DISC INFO:

Disc Title: Chernaya Molniya [ Black Lightning ] 2009 Blu-ray CEE VC-1 DTS-HD MA5.1 - d69a74
Disc Size: 34 988 567 764 bytes
Protection: AACS
BD-Java: Yes
BDInfo: 0.5.4

PLAYLIST REPORT:

Name: 00100.MPLS
Length: 0:00:25 (h:m:s)
Size: 737 856 bytes
Total Bitrate: 0,24 Mbps

VIDEO:

Codec Bitrate Deion
----- ------- -----------
MPEG-2 Video 88 kbps 1080p / 23,976 fps / 16:9

FILES:

Name Time In Length Size Total Bitrate
---- ------- ------ ---- -------------
50139.M2TS 0:00:00.000 0:00:10.010 221 952 89
50139.M2TS 0:00:10.010 0:00:10.009 187 584 75
50139.M2TS 0:00:20.020 0:00:05.004 229 440 184
50139.M2TS 0:00:25.025 0:00:00.041 98 880 18 965

CHAPTERS:

Number Time In Length Avg Video Rate Max 1-Sec Rate Max 1-Sec Time Max 5-Sec Rate Max 5-Sec Time Max 10Sec Rate Max 10Sec Time Avg Frame Size Max Frame Size Max Frame Time
------ ------- ------ -------------- -------------- -------------- -------------- -------------- -------------- -------------- -------------- -------------- --------------
1 0:00:00.000 0:00:10.010 214 kbps 94 kbps 00:00:09.968 94 kbps 00:00:09.968 94 kbps 00:00:09.968 134 160 bytes 150 170 bytes 00:00:09.968
2 0:00:10.010 0:00:10.009 75 kbps 150 kbps 00:00:19.978 150 kbps 00:00:19.978 0 kbps 00:00:00.000 93 848 bytes 93 848 bytes 00:00:24.983
3 0:00:20.020 0:00:05.046 1 080 kbps 298 kbps 00:00:19.978 298 kbps 00:00:19.978 224 kbps 00:00:14.931 97 320 bytes 118 149 bytes 00:00:19.978

STREAM DIAGNOSTICS:

File PID Type Codec Language Seconds Bitrate Bytes Packets
---- --- ---- ----- -------- -------------- -------------- ------------- -----
50139.M2TS 4113 (0x1011) 0x02 MPEG-2 15,015 243 456 015 2 482
QUICK SUMMARY:

Disc Title: Chernaya Molniya [ Black Lightning ] 2009 Blu-ray CEE VC-1 DTS-HD MA5.1 - d69a74
Disc Size: 34 988 567 764 bytes
Protection: AACS
BD-Java: Yes
Playlist: 00100.MPLS
Size: 737 856 bytes
Length: 0:00:25
Total Bitrate: 0,24 Mbps
Video: MPEG-2 Video / 88 kbps / 1080p / 23,976 fps / 16:9

********************
PLAYLIST: 00102.MPLS
********************
Код:
Total Video
Title Codec Length Movie Size Disc Size Bitrate Bitrate Main Audio Track Secondary Audio Track
----- ------ ------- -------------- -------------- ------- ------- ------------------ ---------------------
00102.MPLS MPEG-2 0:00:25 762 240 34 988 567 764 0,24 0,09
Код:
DISC INFO:

Disc Title: Chernaya Molniya [ Black Lightning ] 2009 Blu-ray CEE VC-1 DTS-HD MA5.1 - d69a74
Disc Size: 34 988 567 764 bytes
Protection: AACS
BD-Java: Yes
BDInfo: 0.5.4

PLAYLIST REPORT:

Name: 00102.MPLS
Length: 0:00:25 (h:m:s)
Size: 762 240 bytes
Total Bitrate: 0,24 Mbps

VIDEO:

Codec Bitrate Deion
----- ------- -----------
MPEG-2 Video 92 kbps 1080p / 23,976 fps / 16:9

FILES:

Name Time In Length Size Total Bitrate
---- ------- ------ ---- -------------
50127.M2TS 0:00:00.000 0:00:10.010 224 256 90
50127.M2TS 0:00:10.010 0:00:10.009 210 048 84
50127.M2TS 0:00:20.020 0:00:05.004 229 248 184
50127.M2TS 0:00:25.025 0:00:00.041 98 688 18 928

CHAPTERS:

Number Time In Length Avg Video Rate Max 1-Sec Rate Max 1-Sec Time Max 5-Sec Rate Max 5-Sec Time Max 10Sec Rate Max 10Sec Time Avg Frame Size Max Frame Size Max Frame Time
------ ------- ------ -------------- -------------- -------------- -------------- -------------- -------------- -------------- -------------- -------------- --------------
1 0:00:00.000 0:00:10.010 233 kbps 112 kbps 00:00:09.968 112 kbps 00:00:09.968 112 kbps 00:00:09.968 146 077 bytes 152 472 bytes 00:00:09.968
2 0:00:10.010 0:00:10.009 75 kbps 150 kbps 00:00:19.978 150 kbps 00:00:19.978 0 kbps 00:00:00.000 93 848 bytes 93 848 bytes 00:00:24.983
3 0:00:20.020 0:00:05.046 1 114 kbps 298 kbps 00:00:19.978 298 kbps 00:00:19.978 224 kbps 00:00:14.931 100 396 bytes 139 681 bytes 00:00:19.978

STREAM DIAGNOSTICS:

File PID Type Codec Language Seconds Bitrate Bytes Packets
---- --- ---- ----- -------- -------------- -------------- ------------- -----
50127.M2TS 4113 (0x1011) 0x02 MPEG-2 15,015 256 479 849 2 611
QUICK SUMMARY:

Disc Title: Chernaya Molniya [ Black Lightning ] 2009 Blu-ray CEE VC-1 DTS-HD MA5.1 - d69a74
Disc Size: 34 988 567 764 bytes
Protection: AACS
BD-Java: Yes
Playlist: 00102.MPLS
Size: 762 240 bytes
Length: 0:00:25
Total Bitrate: 0,24 Mbps
Video: MPEG-2 Video / 92 kbps / 1080p / 23,976 fps / 16:9

********************
PLAYLIST: 00011.MPLS
********************
Код:
Total Video
Title Codec Length Movie Size Disc Size Bitrate Bitrate Main Audio Track Secondary Audio Track
----- ------ ------- -------------- -------------- ------- ------- ------------------ ---------------------
00011.MPLS VC-1 0:00:23 64 106 496 34 988 567 764 21,69 20,02 DD AC3 5.1 640Kbps
Код:
DISC INFO:

Disc Title: Chernaya Molniya [ Black Lightning ] 2009 Blu-ray CEE VC-1 DTS-HD MA5.1 - d69a74
Disc Size: 34 988 567 764 bytes
Protection: AACS
BD-Java: Yes
BDInfo: 0.5.4

PLAYLIST REPORT:

Name: 00011.MPLS
Length: 0:00:23 (h:m:s)
Size: 64 106 496 bytes
Total Bitrate: 21,69 Mbps

VIDEO:

Codec Bitrate Deion
----- ------- -----------
VC-1 Video 20019 kbps 1080p / 23,976 fps / 16:9 / Advanced Profile 3

AUDIO:

Codec Language Bitrate Deion
----- -------- ------- -----------
Dolby Digital Audio English 640 kbps 5.1 / 48 kHz / 640 kbps / DN -4dB

FILES:

Name Time In Length Size Total Bitrate
---- ------- ------ ---- -------------
00000.M2TS 0:00:00.000 0:00:23.648 64 106 496 21 686

CHAPTERS:

Number Time In Length Avg Video Rate Max 1-Sec Rate Max 1-Sec Time Max 5-Sec Rate Max 5-Sec Time Max 10Sec Rate Max 10Sec Time Avg Frame Size Max Frame Size Max Frame Time
------ ------- ------ -------------- -------------- -------------- -------------- -------------- -------------- -------------- -------------- -------------- --------------
1 0:00:00.000 0:00:23.648 20 019 kbps 43 839 kbps 00:00:07.966 36 473 kbps 00:00:07.048 32 577 kbps 00:00:04.713 108 781 bytes 471 987 bytes 00:00:08.591

STREAM DIAGNOSTICS:

File PID Type Codec Language Seconds Bitrate Bytes Packets
---- --- ---- ----- -------- -------------- -------------- ------------- -----
00000.M2TS 4113 (0x1011) 0xEA VC-1 23,565 20 090 59 176 948 321 957
00000.M2TS 4352 (0x1100) 0x81 AC3 eng (English) 23,565 643 1 894 400 11 100
QUICK SUMMARY:

Disc Title: Chernaya Molniya [ Black Lightning ] 2009 Blu-ray CEE VC-1 DTS-HD MA5.1 - d69a74
Disc Size: 34 988 567 764 bytes
Protection: AACS
BD-Java: Yes
Playlist: 00011.MPLS
Size: 64 106 496 bytes
Length: 0:00:23
Total Bitrate: 21,69 Mbps
Video: VC-1 Video / 20019 kbps / 1080p / 23,976 fps / 16:9 / Advanced Profile 3
Audio: English / Dolby Digital Audio / 5.1 / 48 kHz / 640 kbps / DN -4dB

********************
PLAYLIST: 01102.MPLS
********************
Код:
Total Video
Title Codec Length Movie Size Disc Size Bitrate Bitrate Main Audio Track Secondary Audio Track
----- ------ ------- -------------- -------------- ------- ------- ------------------ ---------------------
01102.MPLS VC-1 0:00:23 64 106 496 34 988 567 764 21,69 20,02 DD AC3 5.1 640Kbps
Код:
DISC INFO:

Disc Title: Chernaya Molniya [ Black Lightning ] 2009 Blu-ray CEE VC-1 DTS-HD MA5.1 - d69a74
Disc Size: 34 988 567 764 bytes
Protection: AACS
BD-Java: Yes
BDInfo: 0.5.4

PLAYLIST REPORT:

Name: 01102.MPLS
Length: 0:00:23 (h:m:s)
Size: 64 106 496 bytes
Total Bitrate: 21,69 Mbps

VIDEO:

Codec Bitrate Deion
----- ------- -----------
VC-1 Video 20019 kbps 1080p / 23,976 fps / 16:9 / Advanced Profile 3

AUDIO:

Codec Language Bitrate Deion
----- -------- ------- -----------
Dolby Digital Audio English 640 kbps 5.1 / 48 kHz / 640 kbps / DN -4dB

FILES:

Name Time In Length Size Total Bitrate
---- ------- ------ ---- -------------
50057.M2TS 0:00:00.000 0:00:23.648 64 106 496 21 686

CHAPTERS:

Number Time In Length Avg Video Rate Max 1-Sec Rate Max 1-Sec Time Max 5-Sec Rate Max 5-Sec Time Max 10Sec Rate Max 10Sec Time Avg Frame Size Max Frame Size Max Frame Time
------ ------- ------ -------------- -------------- -------------- -------------- -------------- -------------- -------------- -------------- -------------- --------------
1 0:00:00.000 0:00:23.648 20 019 kbps 43 839 kbps 00:00:07.966 36 473 kbps 00:00:07.048 32 577 kbps 00:00:04.713 108 781 bytes 471 987 bytes 00:00:08.591

STREAM DIAGNOSTICS:

File PID Type Codec Language Seconds Bitrate Bytes Packets
---- --- ---- ----- -------- -------------- -------------- ------------- -----
50057.M2TS 4113 (0x1011) 0xEA VC-1 23,565 20 090 59 176 948 321 957
50057.M2TS 4352 (0x1100) 0x81 AC3 eng (English) 23,565 643 1 894 400 11 100
QUICK SUMMARY:

Disc Title: Chernaya Molniya [ Black Lightning ] 2009 Blu-ray CEE VC-1 DTS-HD MA5.1 - d69a74
Disc Size: 34 988 567 764 bytes
Protection: AACS
BD-Java: Yes
Playlist: 01102.MPLS
Size: 64 106 496 bytes
Length: 0:00:23
Total Bitrate: 21,69 Mbps
Video: VC-1 Video / 20019 kbps / 1080p / 23,976 fps / 16:9 / Advanced Profile 3
Audio: English / Dolby Digital Audio / 5.1 / 48 kHz / 640 kbps / DN -4dB

********************
PLAYLIST: 01103.MPLS
********************
[code]
Total Vi[/spoiler]

[url=http://imgup.pp.ua/?v=t9o9n0lz.png][img]http://imgup.pp.ua/thumbs/t9o9n0lz.png[/img][/url] [url=http://imgup.pp.ua/?v=hw3wgyyt.png][img]http://imgup.pp.ua/thumbs/hw3wgyyt.png[/img][/url] [url=http://imgup.pp.ua/?v=tt5ean54.png][img]http://imgup.pp.ua/thumbs/tt5ean54.png[/img][/url]



   Похожие торренты   Торрент   Размер 
В этой теме нет новых непрочитанных сообщений. OST. Черная молния (2009) MP3

0 | 5

55.37 МБ

В этой теме нет новых непрочитанных сообщений. Черная молния (2009) BDRip by NB

5 | 7

1.46 ГБ

В этой теме нет новых непрочитанных сообщений. Черная Молния (2009) DVDRip

66 | 8

1.37 ГБ

В этой теме нет новых непрочитанных сообщений. Чёрная молния (2009) DVDRip

0 | 4

701.15 МБ

В этой теме нет новых непрочитанных сообщений. Черная молния (2009) DVD9

0 | 2

7.54 ГБ

В этой теме нет новых непрочитанных сообщений. Черная молния (2009) DVDRip

1 | 2

1.37 ГБ

В этой теме нет новых непрочитанных сообщений. Черная молния (2009) DVD5

0 | 2

4.37 ГБ




Вы не можете начинать темы
Вы не можете отвечать на сообщения
Вы не можете редактировать свои сообщения
Вы не можете удалять свои сообщения
Вы не можете добавлять вложения

Перейти:  
Для Мосгорсуда, Роскомнадзора и рекламодателей: mosgorsud-torrent[собачка]yandex.ru
 Вход
ppkBB3cker v.2 © 2008-2014 @ PPK
[ Time : 0.025s | 16 Queries | GZIP : Off ]

Торрент трекер RUTOR.IN, Не можете зайти на rutor.org? Какой новый адрес рутор? Какое зеркало рутор? Не работает rutor.org и зеркала? Тогда наш торрент специально для вас. Rutor.in неофициальное зеркало rutor. В случае если у Вас заблокирован rutor или вдруг Вы не можете на него зайти, то Вы без труда сможете скачать бесплатно и без рекламы последние новинки кино, игр, сериалов и прочего у нас, на Rutor.in. Не нужно использовать прокси, чтобы зайти на рутор, достаточно воспользоваться нашим ресурсом. Все новые фильмы, игры, сериалы, книги и музыка за 2013 и 2014 годы через торрент бесплатно. Скачивайте фильмы в хорошем качестве, игры для пк, xbox, playstation без регистрации. У нас вы найдете новые Зарубежные сериалы и Русские сериалы 2013, 2014, 2015 годов. Оставайтесь с нами, качайте любимые фильмы, игры, сериалы, книги и музыку.