img image001 image001 image001 image001 image001 image001 image001 image001 image001 image001 image001 image001 image001 image001 image001

Planets Sun Sun Sun
Статистика раздачи
Автор: Снежана | Размер: 15.9 ГБ | Добавлен: 24 июл 2013
Раздают: 102    Качают: 24
Скачать торрент
Скачать торрент
Описание торрента

СообщениеДобавлено: 24 июл 2013 

Ночной дозор



Год выпуска: 2004
Страна: Россия
Жанр: фэнтези, боевик
Продолжительность: 115 мин.
Режиссер: Тимур Бекмамбетов
Продюссер: Алексей Кублицкий, Анатолий Максимов, Константин Эрнст
Сценарий: Тимур Бекмамбетов, Сергей Лукьяненко
Бюджет: $4 200 000
Премьера в мире: 8 июля 2004
6.40 (27 620)

В ролях: Константин Хабенский, Владимир Меньшов, Валерий Золотухин, Мария Порошина, Галина Тюнина, Гоша Куценко, Алексей Чадов, Жанна Фриске, Илья Лагутенко, Виктор Вержбицкий
Описание: Все знают, что на ночных улицах опасно. Но в данном случае речь идет не о преступниках и маньяках. Когда наступает ночь, и силы Зла властвуют безраздельно, можно столкнуться с теми, с кем не встретишься днем — темными магами, вампирами и прочей нечистью. Их сила столь велика, что справиться с ними обычным оружием невозможно.Но по следу «ночных охотников» идут те, кто веками сражается с порождениями сумрака и побеждает их, неукоснительно соблюдая при этом Договор, заключенный тысячелетия тому назад между Светлыми и Темными... Имя им — Ночной Дозор. Их предназначение — сохранение равновесия между Добром и Злом, нарушение которого вызывает разрушения, войны, революции, вселенские катастрофы.Каждый плохой человеческий поступок — измена, предательство, убийство, равно, как и хороший, ложится на чашу весов, перевешивая их то в одну, то в другую сторону. Именно поэтому и силы Света, и силы Тьмы вынуждены существовать в двух мирах: реальном и потустороннем, пытаясь либо подтолкнуть человека к греху, либо отвратить от него...
Доп. информация: Кодирование видео в три прохода
Полное имя : NIGHT-n-DAY.WATCH.DILOGYNight.Wacth.2004.BDRip.1080p.mkv
Формат : Matroska
Версия формата : Version 2
Размер файла : 7,95 Гбайт
Продолжительность : 1 ч. 54 м.
Общий поток : 9951 Кбит/сек
Дата кодирования : UTC 2011-06-24 17:34:19
Программа кодирования : mkvmerge v4.8.0 ('I Got The...') сборка от May 24 2011 03:12:58
Библиотека кодирования : libebml v1.2.0 + libmatroska v1.1.0

Видео
Идентификатор : 1
Формат : AVC
Формат/Информация : Advanced Video Codec
Профиль формата : High@L4.1
Параметр CABAC формата : Да
Параметр ReFrames формата : 4 кадра
Идентификатор кодека : V_MPEG4/ISO/AVC
Продолжительность : 1 ч. 54 м.
Вид битрейта : Переменный
Битрейт : 8410 Кбит/сек
Максимальный битрейт : 40,0 Мбит/сек
Ширина : 1920 пикс.
Высота : 1040 пикс.
Соотношение сторон : 16:9
Частота кадров : 23,976 кадр/сек
Цветовое пространство : YUV
Подвыборка цветности : 4:2:0
Битовая глубина : 8 бит
Тип развёртки : Прогрессивная
Бит/(Пиксели*Кадры) : 0.176
Размер потока : 6,59 Гбайт (83%)
Заголовок : BDRip 1080 by FREEISLAND
Библиотека кодирования : x264 core 115 r2008 4c552d8
Настройки программы : cabac=1 / ref=4 / deblock=1:-3:-3 / analyse=0x3:0x133 / me=umh / subme=7 / psy=1 / psy_rd=1.00:0.00 / mixed_ref=1 / me_range=32 / chroma_me=1 / trellis=2 / 8x8dct=1 / cqm=0 / deadzone=21,11 / fast_pskip=0 / chroma_qp_offset=-2 / threads=9 / sliced_threads=0 / nr=0 / decimate=1 / interlaced=0 / bluray_compat=0 / constrained_intra=0 / bframes=5 / b_pyramid=2 / b_adapt=1 / b_bias=35 / direct=1 / weightb=1 / open_gop=0 / weightp=2 / keyint=250 / keyint_min=23 / scenecut=40 / intra_refresh=0 / rc=2pass / mbtree=0 / bitrate=8410 / ratetol=1.0 / qcomp=1.00 / qpmin=0 / qpmax=51 / qpstep=2 / cplxblur=20.0 / qblur=0.5 / ip_ratio=1.40 / pb_ratio=1.30 / aq=1:1.0
Язык : Russian
Основные цвета : BT.709-5, BT.1361, IEC 61966-2-4, SMPTE RP177
Характеристики трансфера : BT.709-5, BT.1361
Коэффициенты матрицы : BT.709-5, BT.1361, IEC 61966-2-4 709, SMPTE RP177

Аудио #1
Идентификатор : 2
Формат : DTS
Формат/Информация : Digital Theater Systems
Идентификатор кодека : A_DTS
Продолжительность : 1 ч. 54 м.
Вид битрейта : Постоянный
Битрейт : 755 Кбит/сек
Каналы : 6 каналов
Расположение каналов : Front: L C R, Side: L R, LFE
Частота : 48,0 КГц
Битовая глубина : 24 бит
Метод сжатия : С потерями
Размер потока : 617 Мбайт (8%)
Заголовок : DTS 768 Кбит/сек
Язык : Russian

Аудио #2
Идентификатор : 3
Формат : DTS
Формат/Информация : Digital Theater Systems
Идентификатор кодека : A_DTS
Продолжительность : 1 ч. 54 м.
Вид битрейта : Постоянный
Битрейт : 755 Кбит/сек
Каналы : 6 каналов
Расположение каналов : Front: L C R, Side: L R, LFE
Частота : 48,0 КГц
Битовая глубина : 24 бит
Метод сжатия : С потерями
Размер потока : 617 Мбайт (8%)
Заголовок : DTS 768 Кбит/сек
Язык : English

Текст #1
Идентификатор : 4
Формат : VobSub
Режим смешивания : zlib
Идентификатор кодека : S_VOBSUB
Идентификатор кодека/Информация : The same subtitle format used on DVDs
Язык : English

Текст #2
Идентификатор : 5
Формат : VobSub
Режим смешивания : zlib
Идентификатор кодека : S_VOBSUB
Идентификатор кодека/Информация : The same subtitle format used on DVDs
Язык : English

Текст #3
Идентификатор : 6
Формат : VobSub
Режим смешивания : zlib
Идентификатор кодека : S_VOBSUB
Идентификатор кодека/Информация : The same subtitle format used on DVDs
Язык : English

Меню
00:00:00.000 : en:Chapter 01
00:04:00.073 : en:Chapter 02
00:10:54.028 : en:Chapter 03
00:15:49.615 : en:Chapter 04
00:19:26.790 : en:Chapter 05
00:24:12.868 : en:Chapter 06
00:28:15.110 : en:Chapter 07
00:33:08.861 : en:Chapter 08
00:38:08.160 : en:Chapter 09
00:40:01.065 : en:Chapter 10
00:43:40.951 : en:Chapter 11
00:50:44.458 : en:Chapter 12
00:58:33.051 : en:Chapter 13
01:04:30.491 : en:Chapter 14
01:09:26.996 : en:Chapter 15
01:13:34.952 : en:Chapter 16
01:24:07.542 : en:Chapter 17
01:33:18.259 : en:Chapter 18
01:37:39.562 : en:Chapter 19
01:47:40.787 : en:Chapter 20

Качество: BDRip 1080p
Формат: MKV
Видео кодек: H.264
Аудио кодек: DTS
Видео: 1920 x 1040 (1.846) at 23.976 fps AVC at 8410 Кбит/сек, High@L4.1
Аудио: DTS at 755 Кбит/сек 6 каналов, 48,0 КГц - Русский
Аудио: DTS at 755 Кбит/сек 6 каналов, 48,0 КГц - Английский
Аудио: АС-3 at 640 Кбит/сек 6 каналов, 48,0 КГц -Русский(русский пролог и эпилог)- отдельно на народе
Субтитры: Английские -VobSub





Дневной дозор



Год выпуска: 2005
Страна: Россия
Жанр: фэнтези, боевик, триллер
Продолжительность: 2:25:48.
Режиссер: Тимур Бекмамбетов
Продюссер: Варя Авдюшко, Константин Эрнст, Алексей Кублицкий
Сценарий: Тимур Бекмамбетов, Сергей Лукьяненко, Александр Талал
Бюджет: $4 200 000
Премьера в мире: 1 января 2006
6.50 (15 509)

В ролях: Константин Хабенский, Мария Порошина, Владимир Меньшов, Галина Тюнина, Виктор Вержбицкий, Жанна Фриске, Дмитрий Мартынов, Валерий Золотухин, Алексей Чадов, Нуржуман Ихтымбаев
Описание: Ночью в подъезде своего дома убита молодая женщина. На теле не обнаружено никаких следов насилия... Зыбкое равновесие между Светлыми и Темными нарушено. И чаша весов склоняется в сторону Темных. Но убитая — Темная иная, а значит подозрение падает на Светлых.Гессер срочно собирает команду: обвинение в убийстве — серьезная проблема. Он обязан реагировать. И, прежде всего, понять кто где был и чем занимался в указанное Темными время. Выясняется, что алиби отсутствует только у Городецкого...
Доп. информация: Кодирование видео в три прохода
Полное имя : NIGHT-n-DAY.WATCH.DILOGYDay.Wacth.2005.BDRip.1080p.mkv
Формат : Matroska
Версия формата : Version 2
Размер файла : 7,95 Гбайт
Продолжительность : 2 ч. 25 м.
Общий поток : 7805 Кбит/сек
Дата кодирования : UTC 2011-06-27 14:49:13
Программа кодирования : mkvmerge v4.8.0 ('I Got The...') сборка от May 24 2011 03:12:58
Библиотека кодирования : libebml v1.2.0 + libmatroska v1.1.0

Видео
Идентификатор : 1
Формат : AVC
Формат/Информация : Advanced Video Codec
Профиль формата : High@L4.1
Параметр CABAC формата : Да
Параметр ReFrames формата : 4 кадра
Параметры GOP формата : M=7, N=51
Идентификатор кодека : V_MPEG4/ISO/AVC
Продолжительность : 2 ч. 25 м.
Битрейт : 6269 Кбит/сек
Ширина : 1920 пикс.
Высота : 816 пикс.
Соотношение сторон : 2,35:1
Частота кадров : 23,976 кадр/сек
Цветовое пространство : YUV
Подвыборка цветности : 4:2:0
Битовая глубина : 8 бит
Тип развёртки : Прогрессивная
Бит/(Пиксели*Кадры) : 0.167
Размер потока : 6,25 Гбайт (79%)
Заголовок : BDRip 1080p by FREEISLAND
Библиотека кодирования : x264 core 115 r2008 4c552d8
Настройки программы : cabac=1 / ref=4 / deblock=1:-3:-3 / analyse=0x3:0x133 / me=umh / subme=7 / psy=1 / psy_rd=1.00:0.00 / mixed_ref=1 / me_range=32 / chroma_me=1 / trellis=2 / 8x8dct=1 / cqm=0 / deadzone=21,11 / fast_pskip=0 / chroma_qp_offset=-2 / threads=9 / sliced_threads=0 / nr=0 / decimate=1 / interlaced=0 / bluray_compat=0 / constrained_intra=0 / bframes=6 / b_pyramid=2 / b_adapt=1 / b_bias=35 / direct=1 / weightb=1 / open_gop=0 / weightp=2 / keyint=250 / keyint_min=23 / scenecut=40 / intra_refresh=0 / rc=2pass / mbtree=0 / bitrate=6269 / ratetol=1.0 / qcomp=1.00 / qpmin=0 / qpmax=51 / qpstep=2 / cplxblur=20.0 / qblur=0.5 / ip_ratio=1.40 / pb_ratio=1.30 / aq=1:1.00
Язык : Russian
Основные цвета : BT.709-5, BT.1361, IEC 61966-2-4, SMPTE RP177
Характеристики трансфера : BT.709-5, BT.1361
Коэффициенты матрицы : BT.709-5, BT.1361, IEC 61966-2-4 709, SMPTE RP177

Аудио #1
Идентификатор : 2
Формат : DTS
Формат/Информация : Digital Theater Systems
Идентификатор кодека : A_DTS
Продолжительность : 2 ч. 25 м.
Вид битрейта : Постоянный
Битрейт : 755 Кбит/сек
Каналы : 6 каналов
Расположение каналов : Front: L C R, Side: L R, LFE
Частота : 48,0 КГц
Битовая глубина : 24 бит
Метод сжатия : С потерями
Размер потока : 787 Мбайт (10%)
Язык : Russian

Аудио #2
Идентификатор : 3
Формат : DTS
Формат/Информация : Digital Theater Systems
Идентификатор кодека : A_DTS
Продолжительность : 2 ч. 25 м.
Вид битрейта : Постоянный
Битрейт : 755 Кбит/сек
Каналы : 6 каналов
Расположение каналов : Front: L C R, Side: L R, LFE
Частота : 48,0 КГц
Битовая глубина : 24 бит
Метод сжатия : С потерями
Размер потока : 787 Мбайт (10%)
Язык : English

Текст #1
Идентификатор : 4
Формат : VobSub
Режим смешивания : zlib
Идентификатор кодека : S_VOBSUB
Идентификатор кодека/Информация : The same subtitle format used on DVDs
Язык : Russian

Текст #2
Идентификатор : 5
Формат : VobSub
Режим смешивания : zlib
Идентификатор кодека : S_VOBSUB
Идентификатор кодека/Информация : The same subtitle format used on DVDs
Язык : English

Текст #3
Идентификатор : 6
Формат : VobSub
Режим смешивания : zlib
Идентификатор кодека : S_VOBSUB
Идентификатор кодека/Информация : The same subtitle format used on DVDs
Язык : English

Текст #4
Идентификатор : 7
Формат : VobSub
Режим смешивания : zlib
Идентификатор кодека : S_VOBSUB
Идентификатор кодека/Информация : The same subtitle format used on DVDs
Язык : English

Меню
00:00:00.000 : en:Chapter 01
00:05:48.139 : en:Chapter 02
00:08:30.218 : en:Chapter 03
00:12:35.838 : en:Chapter 04
00:17:00.352 : en:Chapter 05
00:20:30.270 : en:Chapter 06
00:23:24.319 : en:Chapter 07
00:26:59.200 : en:Chapter 08
00:32:45.797 : en:Chapter 09
00:35:15.530 : en:Chapter 10
00:38:31.976 : en:Chapter 11
00:40:52.450 : en:Chapter 12
00:45:38.068 : en:Chapter 13
00:49:48.777 : en:Chapter 14
00:54:10.622 : en:Chapter 15
00:57:15.849 : en:Chapter 16
01:00:01.556 : en:Chapter 17
01:01:27.141 : en:Chapter 18
01:05:13.576 : en:Chapter 19
01:06:54.260 : en:Chapter 20
01:08:56.715 : en:Chapter 21
01:13:09.551 : en:Chapter 22
01:16:12.025 : en:Chapter 23
01:20:04.591 : en:Chapter 24
01:22:50.173 : en:Chapter 25
01:28:49.824 : en:Chapter 26
01:30:42.770 : en:Chapter 27
01:34:49.475 : en:Chapter 28
01:39:45.813 : en:Chapter 29
01:45:16.476 : en:Chapter 30
01:46:56.326 : en:Chapter 31
01:50:32.834 : en:Chapter 32
01:52:12.934 : en:Chapter 33
01:54:37.120 : en:Chapter 34
01:57:41.804 : en:Chapter 35
02:01:07.009 : en:Chapter 36
02:08:46.969 : en:Chapter 37
02:10:28.862 : en:Chapter 38
02:13:10.065 : en:Chapter 39
02:17:02.130 : en:Chapter 40
02:25:48.281 : en:Chapter 41

Качество: BDRip 1080p
Формат: MKV
Видео кодек: H.264
Аудио кодек: DTS
Видео: AVC at 6269 Кбит/сек 1920 x 816 (2.353) at 23.976 fps High@L4.1
Аудио: DTS at 755 Кбит/сек 6 каналов, 48,0 КГц - Русский
Аудио: DTS at 755 Кбит/сек 6 каналов, 48,0 КГц - английский
Субтитры: Русские, английские -VobSub



Релиз от:



   Похожие торренты   Торрент   Размер 
В этой теме нет новых непрочитанных сообщений. Ночной Дозор + Дневной Дозор: Дилогия (2004-2005) BDRip-AVC

407 | 52

4.7 ГБ

В этой теме нет новых непрочитанных сообщений. Дневной Дозор / Day Watch (2005) BDRip 1080p

138 | 21

7.76 ГБ

В этой теме нет новых непрочитанных сообщений. Дневной дозор / Day Watch (2006) BDRip 720p от FREEISLAND

38 | 5

4.43 ГБ

В этой теме нет новых непрочитанных сообщений. Ночной Дозор / Night Watch (2004) BDRip 1080p

245 | 33

7.76 ГБ

В этой теме нет новых непрочитанных сообщений. Дневной дозор (2005) BDRip-AVC от R.G. HD-Films | 60 fps

375 | 19

3.95 ГБ

В этой теме нет новых непрочитанных сообщений. Дневной дозор / Day Watch [Director's Cut] (2005) BDRip от HELLYWOOD

96 | 9

2.19 ГБ

В этой теме нет новых непрочитанных сообщений. Дневной дозор (2005) HDRip от MegaPeer

13 | 0

795.38 МБ




Вы не можете начинать темы
Вы не можете отвечать на сообщения
Вы не можете редактировать свои сообщения
Вы не можете удалять свои сообщения
Вы не можете добавлять вложения

Перейти:  
Для Мосгорсуда, Роскомнадзора и рекламодателей: mosgorsud-torrent[собачка]yandex.ru
 Вход
ppkBB3cker v.2 © 2008-2014 @ PPK
[ Time : 0.061s | 14 Queries | GZIP : Off ]

Торрент трекер RUTOR.IN, Не можете зайти на rutor.org? Какой новый адрес рутор? Какое зеркало рутор? Не работает rutor.org и зеркала? Тогда наш торрент специально для вас. Rutor.in неофициальное зеркало rutor. В случае если у Вас заблокирован rutor или вдруг Вы не можете на него зайти, то Вы без труда сможете скачать бесплатно и без рекламы последние новинки кино, игр, сериалов и прочего у нас, на Rutor.in. Не нужно использовать прокси, чтобы зайти на рутор, достаточно воспользоваться нашим ресурсом. Все новые фильмы, игры, сериалы, книги и музыка за 2013 и 2014 годы через торрент бесплатно. Скачивайте фильмы в хорошем качестве, игры для пк, xbox, playstation без регистрации. У нас вы найдете новые Зарубежные сериалы и Русские сериалы 2013, 2014, 2015 годов. Оставайтесь с нами, качайте любимые фильмы, игры, сериалы, книги и музыку.