img image001 image001 image001 image001 image001 image001 image001 image001 image001 image001 image001 image001 image001 image001 image001

Planets Sun Sun Sun
Статистика раздачи
Автор: Снежана | Размер: 4.08 ГБ | Добавлен: 24 июл 2013
Раздают: 2    Качают: 2
Скачать торрент
Скачать торрент
Описание торрента

СообщениеДобавлено: 24 июл 2013 

#77

Страна: США, Россия
Жанр: боевик, криминал
Год выпуска: 2005
Продолжительность: 01:32:00
Перевод: Профессиональный (дублированный) НТВ
Перевод (2): Авторский (одноголосый закадровый) В. Горчаков
Cубтитры: голландские
Оригинальная аудиодорожка: английский
Режиссер: Джеймс Д. Дэк / James D. Deck
В ролях: Тара Рид, Ник Моран, Грегг Генри, Патрик Ф. Галлахер, Джеймс Д. Дэк, Олег Штефанко, Георгий Мартиросьян, Ирина Григорьева, Александр Фастовский, Роберт Ф. Лайонс
Описание: Действие фильма разворачивается в наши дни, в Москве, куда прилетает молодой сотрудник ЦРУ Гордон Патрик с заданием выяснить судьбу пропавшего кредита, предоставленного правительством США одной из частных российских компаний. Гордон узнает, что компании, получившей кредит, не существует, а вся история, связанная с получением этих денег, является аферой.
На агента начинается охота, в которой участвуют как американцы, так и русские, стремящиеся не допустить раскрытия этого преступления. Неожиданно Гордон обретает союзников — Дину, русскую девушку, а также американского посла в России, который становится главным помощником Гордона, его «теневым партнером»…

Доп. информация: За исходник большое спасибо Arias. Русские дорожки - спасибо Виталя_А и всем, кто принимал участие). Вместо англ. 2.0 - дубляж, Горчаков - с пульта плеера.
Бонусы: Трейлеры
Изготовление диска:
PGCDemux (извлечение).
BeSweet, Sony Vegas 9 (звук)
MuxMan (сборка). DvdReMakePro (финал).
Меню: Статичное Рип от Нордер


Файл:
Видео
Идентификатор : 224 (0xE0)
Формат : MPEG Video
Версия формата : Version 2
Профиль формата : Main@Main
Параметр BVOP формата : Да
Параметр матрицы формата : По умолчанию
Продолжительность : 25 м.
Вид битрейта : Переменный
Битрейт : 4610 Кбит/сек
Номинальный битрейт : 9800 Кбит/сек
Ширина : 720 пикс.
Высота : 576 пикс.
Соотношение сторон : 2,35:1
Частота кадров : 25,000 кадр/сек
Стандарт вещания : PAL
Цветовое пространство : YUV
Подвыборка цветности : 4:2:0
Битовая глубина : 8 бит
Тип развёртки : Чересстрочная
Порядок развёртки : Верхнее поле первое
Метод сжатия : С потерями
Бит/(Пиксели*Кадры) : 0.445
Размер потока : 850 Мбайт (83%)

Аудио #1
Идентификатор : 189 (0xBD)-128 (0x80)
Формат : AC-3
Формат/Информация : Audio Coding 3
Расширение режима : CM (complete main)
Режим смешивания : DVD-Video
Продолжительность : 25 м.
Вид битрейта : Постоянный
Битрейт : 192 Кбит/сек
Каналы : 2 канала
Расположение каналов : Front: L R
Частота : 48,0 КГц
Битовая глубина : 16 бит
Метод сжатия : С потерями
Размер потока : 35,4 Мбайт (3%)

Аудио #2
Идентификатор : 189 (0xBD)-129 (0x81)
Формат : AC-3
Формат/Информация : Audio Coding 3
Расширение режима : CM (complete main)
Режим смешивания : DVD-Video
Продолжительность : 25 м.
Вид битрейта : Постоянный
Битрейт : 448 Кбит/сек
Каналы : 6 каналов
Расположение каналов : Front: L C R, Side: L R, LFE
Частота : 48,0 КГц
Битовая глубина : 16 бит
Метод сжатия : С потерями
Размер потока : 82,6 Мбайт (8%)

Аудио #3
Идентификатор : 189 (0xBD)-130 (0x82)
Формат : AC-3
Формат/Информация : Audio Coding 3
Расширение режима : CM (complete main)
Режим смешивания : DVD-Video
Продолжительность : 25 м.
Вид битрейта : Постоянный
Битрейт : 192 Кбит/сек
Каналы : 2 канала
Расположение каналов : Front: L R
Частота : 48,0 КГц
Битовая глубина : 16 бит
Метод сжатия : С потерями
Размер потока : 35,4 Мбайт (3%)


Тип релиза: DVD5 (Custom)
Контейнер: DVD-Video
Видео: PAL 16:9 (720x576) VBR
Аудио: Russian: AC3, 2/0 ch, 192Kbps
Аудио 2: English: AC3, 3/2+LFE ch, 448Kbps
Аудио 3: Russian: AC3, 2/0 ch, 192Kbps
Сэмпл




   Похожие торренты   Торрент   Размер 
В этой теме нет новых непрочитанных сообщений. Теневой партнер / Silent Partner (2005) DVDRip | D

69 | 8

1.37 ГБ

В этой теме нет новых непрочитанных сообщений. Молчаливый партнер / The Silent Partner (1978) WEB-DLRip | A от Rulya74

3 | 1

1.37 ГБ

В этой теме нет новых непрочитанных сообщений. Молчаливый партнер / The Silent Partner (1978) WEB-DLRip-AVC от Torrent-Xzona

8 | 3

1.43 ГБ

В этой теме нет новых непрочитанных сообщений. Мой партнёр / My PS Partner (2012) HDRip | L2

28 | 3

1.33 ГБ

В этой теме нет новых непрочитанных сообщений. Партнер / Partner. (1968) DVDRip | Sub

7 | 4

1.88 ГБ

В этой теме нет новых непрочитанных сообщений. Мой партнер / Na-eui PS pa-teu-neo / My PS Partner (2012) BDRip AVC от MediaClub

13 | 6

2.21 ГБ

В этой теме нет новых непрочитанных сообщений. Мой партнёр / My PS Partner (2012) BDRip 720p | L2

11 | 2

4.07 ГБ




Вы не можете начинать темы
Вы не можете отвечать на сообщения
Вы не можете редактировать свои сообщения
Вы не можете удалять свои сообщения
Вы не можете добавлять вложения

Перейти:  
Для Мосгорсуда, Роскомнадзора и рекламодателей: mosgorsud-torrent[собачка]yandex.ru
 Вход
ppkBB3cker v.2 © 2008-2014 @ PPK
[ Time : 0.045s | 14 Queries | GZIP : On ]

Торрент трекер RUTOR.IN, Не можете зайти на rutor.org? Какой новый адрес рутор? Какое зеркало рутор? Не работает rutor.org и зеркала? Тогда наш торрент специально для вас. Rutor.in неофициальное зеркало rutor. В случае если у Вас заблокирован rutor или вдруг Вы не можете на него зайти, то Вы без труда сможете скачать бесплатно и без рекламы последние новинки кино, игр, сериалов и прочего у нас, на Rutor.in. Не нужно использовать прокси, чтобы зайти на рутор, достаточно воспользоваться нашим ресурсом. Все новые фильмы, игры, сериалы, книги и музыка за 2013 и 2014 годы через торрент бесплатно. Скачивайте фильмы в хорошем качестве, игры для пк, xbox, playstation без регистрации. У нас вы найдете новые Зарубежные сериалы и Русские сериалы 2013, 2014, 2015 годов. Оставайтесь с нами, качайте любимые фильмы, игры, сериалы, книги и музыку.