img image001 image001 image001 image001 image001 image001 image001 image001 image001 image001 image001 image001 image001 image001 image001

Planets Sun Sun Sun
Статистика раздачи
Автор: Снежана | Размер: 4.24 ГБ | Добавлен: 24 июл 2013
Раздают: 10    Качают: 2
Скачать торрент
Скачать торрент
Описание торрента

СообщениеДобавлено: 24 июл 2013 

#77

Страна: Россия
Студия: Rock Films
Жанр: Драма
Год выпуска: 2010
Продолжительность: 01:12:00
Перевод: Не требуется
Cубтитры: нет
Оригинальная аудиодорожка: русский
Режиссер: Юрий Быков
В ролях: Денис Шведов, Владислав Толдыков, Алексей Комашко, Сергей Жарков, Константин Стрельников, Владимир Сосновский, Сергей Беляев
Описание: Дикие места. Трое преследуют пожилого охотника и молодого парня. Один - проводник, второй - боец. Незнакомые, чуждые друг другу люди должны вместе выжить и добраться до города. Какова цена жизни? На этот вопрос каждый ответит по-своему.
Бонусы: Нет
Тип релиза: DVD5
Контейнер: DVD-Video
Видео: PAL 16:9 (720x576)
Аудио: Russian (Dolby AC3, 2 ch), 192Kbps
Меню: русское, анимированное, озвученное
Сэмпл
Общее
Полное имя : ....Jiti.2010.DVD-5VIDEO_TSVTS_01_1.VOB
Формат : MPEG-PS
Размер файла : 1000 Мбайт
Продолжительность : 18 м.
Общий поток : 7720 Кбит/сек

Видео
Идентификатор : 224 (0xE0)
Формат : MPEG Video
Версия формата : Version 2
Профиль формата : Main@Main
Параметр BVOP формата : Да
Параметр матрицы формата : По умолчанию
Параметры GOP формата : M=3, N=12
Продолжительность : 18 м.
Вид битрейта : Переменный
Битрейт : 7375 Кбит/сек
Номинальный битрейт : 9500 Кбит/сек
Ширина : 720 пикс.
Высота : 576 пикс.
Соотношение сторон : 16:9
Частота кадров : 25,000 кадр/сек
Стандарт вещания : PAL
Цветовое пространство : YUV
Подвыборка цветности : 4:2:0
Битовая глубина : 8 бит
Тип развёртки : Чересстрочная
Порядок развёртки : Нижнее поле первое
Метод сжатия : С потерями
Бит/(Пиксели*Кадры) : 0.711
Размер потока : 955 Мбайт (96%)

Аудио
Идентификатор : 189 (0xBD)-128 (0x80)
Формат : AC-3
Формат/Информация : Audio Coding 3
Расширение режима : CM (complete main)
Режим смешивания : DVD-Video
Продолжительность : 18 м.
Вид битрейта : Постоянный
Битрейт : 192 Кбит/сек
Каналы : 2 канала
Расположение каналов : Front: L R
Частота : 48,0 КГц
Битовая глубина : 16 бит
Метод сжатия : С потерями
Задержка видео : -80 мс.
Размер потока : 24,9 Мбайт (2%)

Меню





   Похожие торренты   Торрент   Размер 
В этой теме нет новых непрочитанных сообщений. Жить (2012) DVD5 от NNM-Club

20 | 4

4.37 ГБ

В этой теме нет новых непрочитанных сообщений. Кипелов - Жить вопреки [Бонус-DVD] (2011) DVD5

1 | 5

2.43 ГБ

В этой теме нет новых непрочитанных сообщений. Проект #ЖИТЬ - #ЖИТЬ [клип] (2016) WEBRip | 7turza

9 | 0

99.59 МБ

В этой теме нет новых непрочитанных сообщений. Жить здорово! [эфир от 2010.09.02] (2010) SATRip

0 | 2

450.54 МБ

В этой теме нет новых непрочитанных сообщений. Жить здорово! [эфир от 2010.08.25] (2010) SATRip

0 | 2

450.69 МБ

В этой теме нет новых непрочитанных сообщений. Жить (2010) DVDRip

23 | 4

742.89 МБ

В этой теме нет новых непрочитанных сообщений. Жить (2010) DVDRip

57 | 9

1.35 ГБ




Вы не можете начинать темы
Вы не можете отвечать на сообщения
Вы не можете редактировать свои сообщения
Вы не можете удалять свои сообщения
Вы не можете добавлять вложения

Перейти:  
Для Мосгорсуда, Роскомнадзора и рекламодателей: mosgorsud-torrent[собачка]yandex.ru
 Вход
ppkBB3cker v.2 © 2008-2014 @ PPK
[ Time : 0.043s | 15 Queries | GZIP : Off ]

cron