img image001 image001 image001 image001 image001 image001 image001 image001 image001 image001 image001 image001 image001 image001 image001

Planets Sun Sun Sun
Статистика раздачи
Автор: Снежана | Размер: 4.36 ГБ | Добавлен: 24 июл 2013
Раздают: 164    Качают: 5
Скачать торрент
Скачать торрент
Описание торрента

СообщениеДобавлено: 24 июл 2013 

#77

Оригинальное название: Каникулы Петрова и Васечкина, обыкновенные и невероятные
Год выпуска: 1984
Жанр: Комедия, семейный
Выпущено: СССР, Одесская киностудия
Режиссер: Владимир Алеников
В ролях: Егор Дружинин, Дмитрий Барков, Инна Аленикова, Инга Ильм, Саша Варакин, Лена Делибаш, Саша Камона, Борис Яновский, Гоги Замбахидзе, Михаил Салов, Алеша Исаев, Настя Уланова, Наташа Казакевич, Тамуна Беридзе, Софико Чиаурели, Аркадий Шалолашвили, Ираклий Учанейшвили, Филипп Алеников, Володя Шаповалов
О фильме: Музыкальная кинокомедия о веселых приключениях двух друзей — Васи Петрова и Пети Васечкина, знакомых по фильму «Приключения Петрова и Васечкина». Неистощимые на выдумки ребята, ученики четвертого класса, повзрослели, но с ними каждый день опять что-нибудь да приключается, даже во время летних каникул.
Общее
Полное имя : ...Kanikuli.Petrova.i.Vasechkina.obiknovennie.i.neverojatnie.(2.serii.iz.2).1984.DVD-5VIDEO_TSVTS_02_1.VOB
Формат : MPEG-PS
Размер файла : 1024 Мбайт
Продолжительность : 31 м.
Общий поток : 4538 Кбит/сек

Видео
Идентификатор : 224 (0xE0)
Формат : MPEG Video
Версия формата : Version 2
Профиль формата : Main@Main
Параметр BVOP формата : Да
Параметр матрицы формата : По умолчанию
Параметры GOP формата : M=3, N=12
Продолжительность : 31 м.
Вид битрейта : Переменный
Битрейт : 4256 Кбит/сек
Номинальный битрейт : 8500 Кбит/сек
Ширина : 720 пикс.
Высота : 576 пикс.
Соотношение сторон : 4:3
Частота кадров : 25,000 кадр/сек
Стандарт вещания : PAL
Цветовое пространство : YUV
Подвыборка цветности : 4:2:0
Битовая глубина : 8 бит
Тип развёртки : Чересстрочная
Порядок развёртки : Верхнее поле первое
Метод сжатия : С потерями
Бит/(Пиксели*Кадры) : 0.410
Размер потока : 960 Мбайт (94%)

Аудио
Идентификатор : 189 (0xBD)-128 (0x80)
Формат : AC-3
Формат/Информация : Audio Coding 3
Расширение режима : CM (complete main)
Режим смешивания : DVD-Video
Продолжительность : 31 м.
Вид битрейта : Постоянный
Битрейт : 192 Кбит/сек
Каналы : 2 канала
Расположение каналов : Front: L R
Частота : 48,0 КГц
Битовая глубина : 16 бит
Метод сжатия : С потерями
Задержка видео : -80 мс.
Размер потока : 43,3 Мбайт (4%)

Меню


Качество: DVD
Видео: PAL 4:3 (720x576@768x576) VBR
Аудио: Русский (Dolby AC3, 2 ch)
Размер: 4.36 ГБ
Продолжительность: 2 х ~ 01:07:28
Язык: Русский



картинка удалена, слишком много просмотров (нездоровый интерес, думаю я. (глянул статистику ууууууууууу.... все 2-3 а эта за 40+))



   Похожие торренты   Торрент   Размер 
В этой теме нет новых непрочитанных сообщений. Каникулы Петрова и Васечкина, обыкновенные и невероятные (1984) DVDRip от Alekxandr48

638 | 31

1.37 ГБ

В этой теме нет новых непрочитанных сообщений. Мелодия - Приключения Петрова и Васечкина, обыкновенные и невероятные (1986 -1987) MP3

125 | 6

342.98 МБ

В этой теме нет новых непрочитанных сообщений. Приключения Петрова и Васечкина, обыкновенные и невероятные (1983) DVDRip от Alekxandr48

636 | 24

1.37 ГБ

В этой теме нет новых непрочитанных сообщений. Владимир Михайлович Алеников - Приключения Петрова и Васечкина (1986) MP3

2 | 2

157.2 МБ

В этой теме нет новых непрочитанных сообщений. Ролли и Эльф: невероятные приключения (2007) DVD5

2 | 2

2.79 ГБ

В этой теме нет новых непрочитанных сообщений. Невероятные приключения итальянцев в России (1974) DVD5 by гаврила

17 | 8

4.27 ГБ

В этой теме нет новых непрочитанных сообщений. Американские каникулы / Vacanze in America (1984) VHSRip | A

44 | 27

1.14 ГБ




Вы не можете начинать темы
Вы не можете отвечать на сообщения
Вы не можете редактировать свои сообщения
Вы не можете удалять свои сообщения
Вы не можете добавлять вложения

Перейти:  
Для Мосгорсуда, Роскомнадзора и рекламодателей: mosgorsud-torrent[собачка]yandex.ru
 Вход
ppkBB3cker v.2 © 2008-2014 @ PPK
[ Time : 0.040s | 16 Queries | GZIP : Off ]

Торрент трекер RUTOR.IN, Не можете зайти на rutor.org? Какой новый адрес рутор? Какое зеркало рутор? Не работает rutor.org и зеркала? Тогда наш торрент специально для вас. Rutor.in неофициальное зеркало rutor. В случае если у Вас заблокирован rutor или вдруг Вы не можете на него зайти, то Вы без труда сможете скачать бесплатно и без рекламы последние новинки кино, игр, сериалов и прочего у нас, на Rutor.in. Не нужно использовать прокси, чтобы зайти на рутор, достаточно воспользоваться нашим ресурсом. Все новые фильмы, игры, сериалы, книги и музыка за 2013 и 2014 годы через торрент бесплатно. Скачивайте фильмы в хорошем качестве, игры для пк, xbox, playstation без регистрации. У нас вы найдете новые Зарубежные сериалы и Русские сериалы 2013, 2014, 2015 годов. Оставайтесь с нами, качайте любимые фильмы, игры, сериалы, книги и музыку.