img image001 image001 image001 image001 image001 image001 image001 image001 image001 image001 image001 image001 image001 image001 image001

Planets Sun Sun Sun
Статистика раздачи
Автор: Снежана | Размер: 5.12 ГБ | Добавлен: 24 июл 2013
Раздают: 0    Качают: 1
Скачать торрент
Скачать торрент
Описание торрента

СообщениеДобавлено: 24 июл 2013 

#77

Информация о фильме
Название: Варенье из сакуры
Оригинальное название: Варенье из сакуры
Год выхода: 2011
Жанр: комедия
Режиссер: Юлия Ауг
В ролях: Михаил Горевой, Алексей Панин Мария Аронова, Екатерина Маликова, , Ренат Давлетьяров, Артем Ткаченко, Петр Красилов, Евгения Лоза, Равшана Куркова, Кирилл Плетнёв, Игорь Яцко

О фильме:
Молодой бизнесмен Воронцов дошел, что называется, до ручки. Он-то строит свое дело грамотно и по всем зарубежным стандартам, а вот сотрудники не поддаются никаким мотивациям и методикам. Воронцов в таком отчаянии, что решается на крайнюю меру: он готов ликвидировать свой офис вместе со штатом, причем в самом прямом смысле слова. Но тут на помощь приходит его старый приятель Щеглов. Есть идея: пригласить опытного кризисного директора, да не простого, а настоящего японца Томокадзу-сан. Он, как «мистер Вульф», решает все проблемы быстро и радикально. Сказано — сделано: Томокадзу-сан водворяется в офисе истерзанного Воронцова, и… начинается! Начинается настоящее противостояние японского духа и русской души, философии самураев и идеологии родной печки, которая сама везде ездит, главное с нее не упасть. Получится ли у доблестного японца превратить наших «неторопливых философов» в «белых шелковых воротничков»?
Выпущено: Россия / VOX Film
Продолжительность: 01:30:45
Озвучивание: Оригинальное

Файл
Видео
Идентификатор : 224 (0xE0)
Формат : MPEG Video
Версия формата : Version 2
Профиль формата : Main@Main
Параметр BVOP формата : Да
Параметр матрицы формата : По умолчанию
Параметры GOP формата : M=3, N=12
Продолжительность : 19 м.
Вид битрейта : Переменный
Битрейт : 6482 Кбит/сек
Номинальный битрейт : 7500 Кбит/сек
Ширина : 720 пикс.
Высота : 576 пикс.
Соотношение сторон : 16:9
Частота кадров : 25,000 кадр/сек
Стандарт вещания : PAL
Цветовое пространство : YUV
Подвыборка цветности : 4:2:0
Битовая глубина : 8 бит
Тип развёртки : Прогрессивная
Метод сжатия : С потерями
Бит/(Пиксели*Кадры) : 0.625
Размер потока : 909 Мбайт (89%)

Аудио #1
Идентификатор : 189 (0xBD)-128 (0x80)
Формат : AC-3
Формат/Информация : Audio Coding 3
Расширение режима : CM (complete main)
Режим смешивания : DVD-Video
Продолжительность : 19 м.
Вид битрейта : Постоянный
Битрейт : 448 Кбит/сек
Каналы : 6 каналов
Расположение каналов : Front: L C R, Side: L R, LFE
Частота : 48,0 КГц
Битовая глубина : 16 бит
Метод сжатия : С потерями
Размер потока : 62,8 Мбайт (6%)

Аудио #2
Идентификатор : 189 (0xBD)-129 (0x81)
Формат : AC-3
Формат/Информация : Audio Coding 3
Расширение режима : CM (complete main)
Режим смешивания : DVD-Video
Продолжительность : 19 м.
Вид битрейта : Постоянный
Битрейт : 224 Кбит/сек
Каналы : 2 канала
Расположение каналов : Front: L R
Частота : 48,0 КГц
Битовая глубина : 16 бит
Метод сжатия : С потерями
Размер потока : 31,4 Мбайт (3%)

Меню


Формат: DVD Video
Качество: DVD R5
Видео: PAL 16:9 (720x576)
Аудио: Russian (Dolby AC3, 6 ch), Russian (Dolby AC3, 2 ch)
Субтитры: нет
Размер: 5.12 Gb
Дополнительно: Анонсы
Релиз группы




   Похожие торренты   Торрент   Размер 
В этой теме нет новых непрочитанных сообщений. Варенье из сакуры (2011) DVDRip | Лицензия

9 | 3

1.37 ГБ

В этой теме нет новых непрочитанных сообщений. Варенье из сакуры (2011) DVDRip от КинозалSAT

7 | 5

1.47 ГБ

В этой теме нет новых непрочитанных сообщений. Варенье из сакуры (2011) DVDRip от Generalfilm

2 | 3

706.24 МБ

В этой теме нет новых непрочитанных сообщений. Цветение сакуры / Цвет сакуры / Kirschblüten - Hanami (2008) DVD9

0 | 3

7.44 ГБ

В этой теме нет новых непрочитанных сообщений. Варенье из инжира / Incir receli (2011) DVDRip | L1

6 | 3

1.36 ГБ

В этой теме нет новых непрочитанных сообщений. Елена Альхабаш - Варенье (2012) PDF

128 | 18

23.61 МБ

В этой теме нет новых непрочитанных сообщений. Хлеб, масло и варенье / Pane, burro e marmellata (1977) DVDRip | P

45 | 17

1.37 ГБ




Вы не можете начинать темы
Вы не можете отвечать на сообщения
Вы не можете редактировать свои сообщения
Вы не можете удалять свои сообщения
Вы не можете добавлять вложения

Перейти:  
Для Мосгорсуда, Роскомнадзора и рекламодателей: mosgorsud-torrent[собачка]yandex.ru
 Вход
ppkBB3cker v.2 © 2008-2014 @ PPK
[ Time : 1.597s | 14 Queries | GZIP : Off ]

Торрент трекер RUTOR.IN, Не можете зайти на rutor.org? Какой новый адрес рутор? Какое зеркало рутор? Не работает rutor.org и зеркала? Тогда наш торрент специально для вас. Rutor.in неофициальное зеркало rutor. В случае если у Вас заблокирован rutor или вдруг Вы не можете на него зайти, то Вы без труда сможете скачать бесплатно и без рекламы последние новинки кино, игр, сериалов и прочего у нас, на Rutor.in. Не нужно использовать прокси, чтобы зайти на рутор, достаточно воспользоваться нашим ресурсом. Все новые фильмы, игры, сериалы, книги и музыка за 2013 и 2014 годы через торрент бесплатно. Скачивайте фильмы в хорошем качестве, игры для пк, xbox, playstation без регистрации. У нас вы найдете новые Зарубежные сериалы и Русские сериалы 2013, 2014, 2015 годов. Оставайтесь с нами, качайте любимые фильмы, игры, сериалы, книги и музыку.