img image001 image001 image001 image001 image001 image001 image001 image001 image001 image001 image001 image001 image001 image001 image001

Planets Sun Sun Sun
Статистика раздачи
Автор: Снежана | Размер: 4.37 ГБ | Добавлен: 24 июл 2013
Раздают: 2    Качают: 1
Скачать торрент
Скачать торрент
Описание торрента

СообщениеДобавлено: 24 июл 2013 

#77

Страна: Россия
Студия: "А-фильм" Свердловской киностудии
Жанр: детский, приключения
Год выпуска: 2010
Российская премьера: 15 апреля 2010, «Панорама Кино»
Дата выхода DVD: 9 ноября 2010, «Флагман-Трейд»
Продолжительность: 01:48:11
Перевод: Оригинал [Лицензия]
Cубтитры: нет
Оригинальная аудиодорожка: русский
Режиссер: Анарио Мамедов
В ролях: Альберт Филозов, Валерий Величко, Даниил Спиваковский, Алексей Князев, Владимир Бегунов, Андрей Дымшаков
Описание: Пятиклассник Женя Ушаков попадает на таинственный остров Двид, которого не видно ни на одной карте. Его жители ходят под номерами, им нельзя шуметь и смеется, потому что это раздражает МО Фо, огромного спрута, который обитает в подземных пещерах. Правитель острова Тахомир Тихо следит за спокойствием и порядком на Двиде, а провинившихся граждан ждет встреча с разгневанным спрутом. Но существует древняя легенда о юном рыцаре из другого мира, который освободит жителей от ужасного гнета…
Неважно, сколько тебе лет и в какое время ты живешь: враги всегда коварны и хитры, но никакие козни им не помогут, потому что настоящая дружба творит чудеса!
Бонусы: Нет

Файл:
Видео
Идентификатор : 224 (0xE0)
Формат : MPEG Video
Версия формата : Version 2
Профиль формата : Main@Main
Параметр BVOP формата : Да
Параметр матрицы формата : По умолчанию
Продолжительность : 25 м.
Вид битрейта : Переменный
Битрейт : 4883 Кбит/сек
Номинальный битрейт : 8670 Кбит/сек
Ширина : 720 пикс.
Высота : 576 пикс.
Соотношение сторон : 16:9
Частота кадров : 25,000 кадр/сек
Стандарт вещания : PAL
Цветовое пространство : YUV
Подвыборка цветности : 4:2:0
Битовая глубина : 8 бит
Тип развёртки : Чересстрочная
Порядок развёртки : Верхнее поле первое
Метод сжатия : С потерями
Бит/(Пиксели*Кадры) : 0.471
Размер потока : 877 Мбайт (86%)

Аудио #1
Идентификатор : 189 (0xBD)-128 (0x80)
Формат : AC-3
Формат/Информация : Audio Coding 3
Расширение режима : CM (complete main)
Режим смешивания : DVD-Video
Продолжительность : 25 м.
Вид битрейта : Постоянный
Битрейт : 448 Кбит/сек
Каналы : 5 каналов
Расположение каналов : Front: L C R, Side: L R
Частота : 48,0 КГц
Битовая глубина : 16 бит
Метод сжатия : С потерями
Размер потока : 80,5 Мбайт (8%)

Аудио #2
Идентификатор : 189 (0xBD)-129 (0x81)
Формат : AC-3
Формат/Информация : Audio Coding 3
Расширение режима : CM (complete main)
Режим смешивания : DVD-Video
Продолжительность : 25 м.
Вид битрейта : Постоянный
Битрейт : 256 Кбит/сек
Каналы : 2 канала
Расположение каналов : Front: L R
Частота : 48,0 КГц
Битовая глубина : 16 бит
Метод сжатия : С потерями
Размер потока : 46,0 Мбайт (4%)

Качество: DVD5 R5
Формат: DVD-Video
Видео кодек: MPEG2
Аудио кодек: AC3
Видео: PAL 16:9 (720x576(0.471)) MPEG Video, 25,000 кадр/сек, 4883 Кбит/сек
Аудио: Russian (Dolby AC3, 5 ch) 448 Кбит/сек, 48,0 КГц, (Dolby AC3, 2 ch) 256 Кбит/сек, 48,0 КГц



   Похожие торренты   Торрент   Размер 
В этой теме нет новых непрочитанных сообщений. Легенда острова Двид (2010) DVDRip

19 | 3

746.34 МБ

В этой теме нет новых непрочитанных сообщений. Легенда острова Двид (2010) DVDRip от OpenSharing Team

27 | 7

1.46 ГБ

В этой теме нет новых непрочитанных сообщений. Путешествие по Европе. Выпуск №34: Азорские острова (2010) DVD5 R5 от New-Team

0 | 2

3.58 ГБ

В этой теме нет новых непрочитанных сообщений. Легенда о Костоломе / Легенда о Костяном Драконе / Легенда о Костобое / Legend of the Boneknapper Dragon (2010) BDRip от HQCLUB

20 | 33

451.83 МБ

В этой теме нет новых непрочитанных сообщений. Лео и легенда / Легенда Навалы / La leyenda de la Nahuala (2007) DVD5 от New-Team | P | Лицензия

26 | 9

4.07 ГБ

В этой теме нет новых непрочитанных сообщений. Настоящая легенда / True Legend / Su Qi-Er (2010) DVD5 vadi

1 | 3

4.37 ГБ

В этой теме нет новых непрочитанных сообщений. Король острова Бастой / Король острова Дьявола / Kongen av Bastøy / King of Devils Island (2010) HDRip от Scarabey

107 | 24

1.45 ГБ




Вы не можете начинать темы
Вы не можете отвечать на сообщения
Вы не можете редактировать свои сообщения
Вы не можете удалять свои сообщения
Вы не можете добавлять вложения

Перейти:  
Для Мосгорсуда, Роскомнадзора и рекламодателей: mosgorsud-torrent[собачка]yandex.ru
 Вход
ppkBB3cker v.2 © 2008-2014 @ PPK
[ Time : 2.334s | 14 Queries | GZIP : Off ]

Торрент трекер RUTOR.IN, Не можете зайти на rutor.org? Какой новый адрес рутор? Какое зеркало рутор? Не работает rutor.org и зеркала? Тогда наш торрент специально для вас. Rutor.in неофициальное зеркало rutor. В случае если у Вас заблокирован rutor или вдруг Вы не можете на него зайти, то Вы без труда сможете скачать бесплатно и без рекламы последние новинки кино, игр, сериалов и прочего у нас, на Rutor.in. Не нужно использовать прокси, чтобы зайти на рутор, достаточно воспользоваться нашим ресурсом. Все новые фильмы, игры, сериалы, книги и музыка за 2013 и 2014 годы через торрент бесплатно. Скачивайте фильмы в хорошем качестве, игры для пк, xbox, playstation без регистрации. У нас вы найдете новые Зарубежные сериалы и Русские сериалы 2013, 2014, 2015 годов. Оставайтесь с нами, качайте любимые фильмы, игры, сериалы, книги и музыку.