img image001 image001 image001 image001 image001 image001 image001 image001 image001 image001 image001 image001 image001 image001 image001

Planets Sun Sun Sun
Статистика раздачи
Автор: Снежана | Размер: 4.25 ГБ | Добавлен: 24 июл 2013
Раздают: 0    Качают: 1
Скачать торрент
Скачать торрент
Описание торрента

СообщениеДобавлено: 24 июл 2013 

#77

Год выпуска: 2011
Страна: Россия
Киностудия: Кинокомпания CTB
Жанр: фэнтези, комедия, приключения
Продолжительность: 01:21:37
Cубтитры: нет
Режиссер: Богдан Дробязко
В ролях: Юрий Чурсин, Сергей Медведев, Екатерина Вилкова, Екатерина Астахова, Иван Охлобыстин, Александр Ильин мл., Алексей Маклаков, Александр Пожаров, Петр Федоров...
Описание: Давным-давно в одном большом городе, когда кризис вроде бы миновал, жили два брата. Младший Никита был самым обыкновенным… Хоббитом, капитаном арбалетчиков из Клана Лысых Холмов, любил пиво, ролевые игры, эльфийский лист, девушку Настю, романы про Средиземье и ничего не делать. Ну, а старший брат Егор служил топ-менеджером большой нефтяной компании. Но у любого менеджера бывает белая полоса, а бывает… увольнение.
В один прекрасный день Егор остался без работы, без офиса и без девушки. И тогда решил Егор обратиться за помощью к своему младшему брату, правда, у того тоже начались большие проблемы. Пропала мотыга Великого Торина — друга и соратника Никиты…

Файл:
Видео
Идентификатор : 224 (0xE0)
Формат : MPEG Video
Версия формата : Version 2
Профиль формата : Main@Main
Параметр BVOP формата : Да
Параметр матрицы формата : По умолчанию
Параметры GOP формата : M=3, N=12
Продолжительность : 21 м.
Вид битрейта : Переменный
Битрейт : 6196 Кбит/сек
Номинальный битрейт : 8000 Кбит/сек
Ширина : 720 пикс.
Высота : 576 пикс.
Соотношение сторон : 16:9
Частота кадров : 25,000 кадр/сек
Стандарт вещания : PAL
Цветовое пространство : YUV
Подвыборка цветности : 4:2:0
Битовая глубина : 8 бит
Тип развёртки : Чересстрочная
Порядок развёртки : Верхнее поле первое
Метод сжатия : С потерями
Бит/(Пиксели*Кадры) : 0.598
Размер потока : 936 Мбайт (91%)

Аудио
Идентификатор : 189 (0xBD)-128 (0x80)
Формат : AC-3
Формат/Информация : Audio Coding 3
Расширение режима : CM (complete main)
Режим смешивания : DVD-Video
Продолжительность : 21 м.
Вид битрейта : Постоянный
Битрейт : 448 Кбит/сек
Каналы : 6 каналов
Расположение каналов : Front: L C R, Side: L R, LFE
Частота : 48,0 КГц
Битовая глубина : 16 бит
Метод сжатия : С потерями
Размер потока : 67,7 Мбайт (7%)

Сэмпл
Качество: DVD5 (сжатый), исходник DVD9 R5 (спасибо vlaa8)
Формат: DVD-Video
Видео: PAL 16:9 (720x576) MPEG Video, 25.000 кадр/сек, 6822 Кбит/сек, VBR Auto Pan&Scan, Auto Letterboxed
Аудио: (Dolby AC3, 6 ch) 448 Кбит/сек, 48,0 КГц
Доп. материалы: нет
Меню: анимированное
Обложки и блины: http://multi-up.com/516967
Из исходника удалена звуковая дорожка DTS и предупреждающие надписи, переведено в статику меню выбора звука, ненужная кнопка затерта. Видео не сжималось. Использовались программы: Фотошоп, MuxMan и DVDRemake. Автор рипа avproh

Раздача от группы:



   Похожие торренты   Торрент   Размер 
В этой теме нет новых непрочитанных сообщений. Суперменеджер, или Мотыга судьбы (2011) Blu-Ray

0 | 3

19.76 ГБ

В этой теме нет новых непрочитанных сообщений. Суперменеджер, или Мотыга судьбы (2011) DVD9

0 | 2

4.77 ГБ

В этой теме нет новых непрочитанных сообщений. Суперменеджер, или Мотыга судьбы (2011) BDRip-AVC от potroks

33 | 5

2.04 ГБ

В этой теме нет новых непрочитанных сообщений. Суперменеджер, или Мотыга судьбы (2011) BDRip | Лицензия

48 | 9

1.46 ГБ

В этой теме нет новых непрочитанных сообщений. Суперменеджер, или Мотыга судьбы (2011) BDRip от HQCLUB

8 | 2

1.45 ГБ

В этой теме нет новых непрочитанных сообщений. Суперменеджер, или Мотыга судьбы (2011) BDRip 720p

1 | 2

4.37 ГБ

В этой теме нет новых непрочитанных сообщений. Суперменеджер, или Мотыга судьбы (2011) BDRip 1080p

1 | 18

7.36 ГБ




Вы не можете начинать темы
Вы не можете отвечать на сообщения
Вы не можете редактировать свои сообщения
Вы не можете удалять свои сообщения
Вы не можете добавлять вложения

Перейти:  
Для Мосгорсуда, Роскомнадзора и рекламодателей: mosgorsud-torrent[собачка]yandex.ru
 Вход
ppkBB3cker v.2 © 2008-2014 @ PPK
[ Time : 0.535s | 14 Queries | GZIP : Off ]

Торрент трекер RUTOR.IN, Не можете зайти на rutor.org? Какой новый адрес рутор? Какое зеркало рутор? Не работает rutor.org и зеркала? Тогда наш торрент специально для вас. Rutor.in неофициальное зеркало rutor. В случае если у Вас заблокирован rutor или вдруг Вы не можете на него зайти, то Вы без труда сможете скачать бесплатно и без рекламы последние новинки кино, игр, сериалов и прочего у нас, на Rutor.in. Не нужно использовать прокси, чтобы зайти на рутор, достаточно воспользоваться нашим ресурсом. Все новые фильмы, игры, сериалы, книги и музыка за 2013 и 2014 годы через торрент бесплатно. Скачивайте фильмы в хорошем качестве, игры для пк, xbox, playstation без регистрации. У нас вы найдете новые Зарубежные сериалы и Русские сериалы 2013, 2014, 2015 годов. Оставайтесь с нами, качайте любимые фильмы, игры, сериалы, книги и музыку.