img image001 image001 image001 image001 image001 image001 image001 image001 image001 image001 image001 image001 image001 image001 image001

Planets Sun Sun Sun
Статистика раздачи
Автор: Снежана | Размер: 4.36 ГБ | Добавлен: 24 июл 2013
Раздают: 7    Качают: 20
Скачать торрент
Скачать торрент
Описание торрента

СообщениеДобавлено: 24 июл 2013 

#77

Оригинальное название: Волки в зоне
Год выпуска: 1990
Жанр: Драма, криминал
Выпущено: СССР, Бенефис, Импульс
Режиссер: Виктор Дерюгин
В ролях: Юозас Киселюс, Станислав Садальский, Виктор Костромин, Марина Гайзидорская, Витаутас Томкус, Михаил Пахоменко, Виталий Зикора, Владимир Толоконников, Виктор Михайлов
Перевод: Не требуется

О фильме: Главарь шайки мародеров Семен орудует в закрытой радиационной зоне. Брошенные людьми вещи, драгоценности и техника становятся легкой добычей преступников, действующих под прикрытием властей и милиции. Положить конец этому беспределу берутся бывший капитан милиции Родион и его напарник Стас.

Доп. информация: Фильм снимался в зоне Чернобыльской АЭС. В основе фильма - факт чернобыльской трагедии и ликвидации аварии. Герои этого фильма - мародер Семен, сбывающий зараженную технику; его бывший сослуживец Стас, капитан милиции, в недавнем прошлом ликвидатор аварии; и некий Человек-Зона, наблюдающий за событиями.

Качество: DVD5
Формат: DVD Video
Видео кодек: MPEG2
Аудио кодек: AC3
Видео: MPEG-2 - 625/50 (PAL) - 4:3 - reserved - 720x576@768х576 (625/50) - 25.00 - 5.91Mbps
Аудио: LPCM - 48kHz - 2.0 - 1536 Kbps

или такие

Видео
Идентификатор : 224 (0xE0)
Формат : MPEG Video
Версия формата : Version 2
Профиль формата : Main@Main
Параметр BVOP формата : Да
Параметр матрицы формата : По умолчанию
Продолжительность : 15 м.
Вид битрейта : Переменный
Битрейт : 7440 Кбит/сек
Номинальный битрейт : 8128 Кбит/сек
Ширина : 720 пикс.
Высота : 576 пикс.
Соотношение сторон : 4:3
Частота кадров : 25,000 кадр/сек
Стандарт вещания : PAL
Цветовое пространство : YUV
Подвыборка цветности : 4:2:0
Битовая глубина : 8 бит
Тип развёртки : Чересстрочная
Порядок развёртки : Верхнее поле первое
Метод сжатия : С потерями
Бит/(Пиксели*Кадры) : 0.718
Размер потока : 832 Мбайт (81%)

Аудио
Идентификатор : 189 (0xBD)-160 (0xA0)
Формат : PCM
Параметр Endianness формата : Big
Параметр Sign формата : Signed
Режим смешивания : DVD-Video
Продолжительность : 15 м.
Вид битрейта : Постоянный
Битрейт : 1536 Кбит/сек
Каналы : 2 канала
Расположение каналов : Front: L R
Частота : 48,0 КГц
Битовая глубина : 16 бит
Размер потока : 172 Мбайт (17%)



   Похожие торренты   Торрент   Размер 
В этой теме нет новых непрочитанных сообщений. Волки в зоне (1990) DVDRip от Тorrent-Хzona

5 | 10

1.08 ГБ

В этой теме нет новых непрочитанных сообщений. В зоне особого внимания (1977) DVD5 by гаврила

77 | 11

3.94 ГБ

В этой теме нет новых непрочитанных сообщений. Волки (2009) DVD5 от Youtracker | лицензия

2 | 3

3.56 ГБ

В этой теме нет новых непрочитанных сообщений. Волки / Wolves (2014) DVD5 от New-Team | D | Лицензия

224 | 36

3.4 ГБ

В этой теме нет новых непрочитанных сообщений. Дрянь (1990) DVD5

7 | 6

4.37 ГБ

В этой теме нет новых непрочитанных сообщений. Меридиан / Meridian (1990) DVD5

1 | 2

4.35 ГБ

В этой теме нет новых непрочитанных сообщений. Савой (1990) DVD5 by гаврила

2 | 2

3.05 ГБ




Вы не можете начинать темы
Вы не можете отвечать на сообщения
Вы не можете редактировать свои сообщения
Вы не можете удалять свои сообщения
Вы не можете добавлять вложения

Перейти:  
Для Мосгорсуда, Роскомнадзора и рекламодателей: mosgorsud-torrent[собачка]yandex.ru
 Вход
ppkBB3cker v.2 © 2008-2014 @ PPK
[ Time : 0.037s | 15 Queries | GZIP : Off ]

Торрент трекер RUTOR.IN, Не можете зайти на rutor.org? Какой новый адрес рутор? Какое зеркало рутор? Не работает rutor.org и зеркала? Тогда наш торрент специально для вас. Rutor.in неофициальное зеркало rutor. В случае если у Вас заблокирован rutor или вдруг Вы не можете на него зайти, то Вы без труда сможете скачать бесплатно и без рекламы последние новинки кино, игр, сериалов и прочего у нас, на Rutor.in. Не нужно использовать прокси, чтобы зайти на рутор, достаточно воспользоваться нашим ресурсом. Все новые фильмы, игры, сериалы, книги и музыка за 2013 и 2014 годы через торрент бесплатно. Скачивайте фильмы в хорошем качестве, игры для пк, xbox, playstation без регистрации. У нас вы найдете новые Зарубежные сериалы и Русские сериалы 2013, 2014, 2015 годов. Оставайтесь с нами, качайте любимые фильмы, игры, сериалы, книги и музыку.
cron