img image001 image001 image001 image001 image001 image001 image001 image001 image001 image001 image001 image001 image001 image001 image001

Planets Sun Sun Sun
Статистика раздачи
Автор: Снежана | Размер: 1.46 ГБ | Добавлен: 24 июл 2013
Раздают: 42    Качают: 18
Скачать торрент
Скачать торрент
Описание торрента

СообщениеДобавлено: 24 июл 2013 

#77

Дознание пилота Пиркса DVDRip-AVC

Жанр: фантастика
Год выпуска: 1979
Продолжительность: 01:34:44

Режиссёр: Марек Пестрак

В ролях: Сергей Десницкий, Александр Кайдановский, Владимир Ивашов, Тыну Саар, Александр Белявский, Игорь Пшегородский


Описание: По рассказу Станислава Лема «Дознание».
Крупная корпорация выпускает человекоподобных роботов, но общественное мнение, пресса и профсоюзы выступают против. Принимается решение провести эксперимент. Опытный пилот должен повести космический корабль к Сатурну и запустить там два искусственных спутника. Экипаж будет состоять из роботов и людей, а командир должен дать оценку необычной команде. Для осуществления полета выбирается пилот Пиркс, известный своей честностью и неподкупностью. Недоброжелатели из корпорации опасаются, что мнение Пиркса может сорвать прибыльное производство, и принимают свои меры...


Доп. информация:


большой приз "Золотой астероид" на МКФ научно-фантастических фильмов в Триесте, 1979 г.


Качество видео: DVDRip-AVC(Исх. DVD5)
Формат видео: MKV

Видео: 714x572@762х572 (4:3), 25.000 fps, AVC, ~1637 kbps, 0.160 bits/pixel

Аудио: 48.0 KHz, AC3, 6 ch, 448 kbps - современный саундтрек
Аудио: 48.0 KHz, AC3, 1 ch, 112 kbps - оригинальный
General
Unique ID : 247932795127556530666818112179052035700 (0xBA861E932C3C86BC9A19095720393E74)
Complete name : L:Doznanie Pilota Pirksa.chopper887.mkv
Format : Matroska
File size : 1.46 GiB
Duration : 1h 34mn
Overall bit rate : 2 199 Kbps
Movie name : Doznanie Pilota Pirksa.chopper887
Encoded date : UTC 2011-08-14 14:25:02
Writing application : mkvmerge v4.8.0 ('I Got The...') built on May 24 2011 03:12:58
Writing library : libebml v1.2.0 + libmatroska v1.1.0

Video
ID : 1
Format : AVC
Format/Info : Advanced Video Codec
Format profile : High@L3.1
Format settings, CABAC : Yes
Format settings, ReFrames : 10 frames
Codec ID : V_MPEG4/ISO/AVC
Duration : 1h 34mn
Bit rate : 1 637 Kbps
Width : 714 pixels
Height : 572 pixels
Display aspect ratio : 4:3
Original display aspect ratio : 5:4
Frame rate : 25.000 fps
Color space : YUV
Chroma subsampling : 4:2:0
Bit depth : 8 bits
Scan type : Progressive
Bits/(Pixel*Frame) : 0.160
Stream size : 1.06 GiB (73%)
Title : Doznanie Pilota Pirksa.chopper887
Writing library : x264 core 115 r2008 4c552d8
Encoding settings : cabac=1 / ref=10 / deblock=1:-2:-1 / analyse=0x3:0x133 / me=umh / subme=10 / psy=1 / psy_rd=1.00:0.10 / mixed_ref=1 / me_range=32 / chroma_me=1 / trellis=2 / 8x8dct=1 / cqm=0 / deadzone=21,11 / fast_pskip=0 / chroma_qp_offset=-3 / threads=3 / sliced_threads=0 / nr=0 / decimate=1 / interlaced=0 / bluray_compat=0 / constrained_intra=0 / bframes=10 / b_pyramid=2 / b_adapt=2 / b_bias=0 / direct=3 / weightb=1 / open_gop=0 / weightp=2 / keyint=250 / keyint_min=25 / scenecut=40 / intra_refresh=0 / rc_lookahead=80 / rc=2pass / mbtree=1 / bitrate=1637 / ratetol=1.0 / qcomp=0.70 / qpmin=0 / qpmax=69 / qpstep=4 / cplxblur=20.0 / qblur=0.5 / ip_ratio=1.40 / aq=1:1.00
Language : English

Audio #1
ID : 2
Format : AC-3
Format/Info : Audio Coding 3
Mode extension : CM (complete main)
Codec ID : A_AC3
Duration : 1h 34mn
Bit rate mode : Constant
Bit rate : 448 Kbps
Channel(s) : 6 channels
Channel positions : Front: L C R, Side: L R, LFE
Sampling rate : 48.0 KHz
Bit depth : 16 bits
Compression mode : Lossy
Stream size : 304 MiB (20%)
Title : New

Audio #2
ID : 3
Format : AC-3
Format/Info : Audio Coding 3
Mode extension : CM (complete main)
Codec ID : A_AC3
Duration : 1h 34mn
Bit rate mode : Constant
Bit rate : 112 Kbps
Channel(s) : 1 channel
Channel positions : Front: C
Sampling rate : 48.0 KHz
Bit depth : 16 bits
Compression mode : Lossy
Stream size : 75.9 MiB (5%)
Title : Old







   Похожие торренты   Торрент   Размер 
В этой теме нет новых непрочитанных сообщений. Дознание пилота Пиркса (1979) DVDRip

8 | 4

1.46 ГБ

В этой теме нет новых непрочитанных сообщений. Дознание пилота Пиркса / Test pilota Pirxa (1979); Заклятие долины змей / Madude oru needus (1987) DVD5

3 | 4

4.36 ГБ

В этой теме нет новых непрочитанных сообщений. Ошибка пилота: Тайна рейса 1501 / Crash: The Mystery of Flight 1501 (1990) DVDRip от MediaClub | L1

2 | 2

1.94 ГБ

В этой теме нет новых непрочитанных сообщений. Boney M. at Sopot Festival, Poland 1979 (1979) DVDRip от MediaClub | КПК

139 | 19

248.12 МБ

В этой теме нет новых непрочитанных сообщений. Александр Шнайдер - Энциклопедия Пилота (2011) PDF

77 | 1

552.61 МБ

В этой теме нет новых непрочитанных сообщений. Рассказ бывалого пилота (1984) SATRip от Files-x | D

7 | 5

989.16 МБ

В этой теме нет новых непрочитанных сообщений. Элтон Джон - Концерт Элтона Джона в СССР в 1979 году / Elton John - To Russia... with Elton (1979) DVDRip от Киномагия

12 | 34

1.37 ГБ




Вы не можете начинать темы
Вы не можете отвечать на сообщения
Вы не можете редактировать свои сообщения
Вы не можете удалять свои сообщения
Вы не можете добавлять вложения

Перейти:  
Для Мосгорсуда, Роскомнадзора и рекламодателей: mosgorsud-torrent[собачка]yandex.ru
 Вход
ppkBB3cker v.2 © 2008-2014 @ PPK
[ Time : 0.059s | 16 Queries | GZIP : Off ]

Торрент трекер RUTOR.IN, Не можете зайти на rutor.org? Какой новый адрес рутор? Какое зеркало рутор? Не работает rutor.org и зеркала? Тогда наш торрент специально для вас. Rutor.in неофициальное зеркало rutor. В случае если у Вас заблокирован rutor или вдруг Вы не можете на него зайти, то Вы без труда сможете скачать бесплатно и без рекламы последние новинки кино, игр, сериалов и прочего у нас, на Rutor.in. Не нужно использовать прокси, чтобы зайти на рутор, достаточно воспользоваться нашим ресурсом. Все новые фильмы, игры, сериалы, книги и музыка за 2013 и 2014 годы через торрент бесплатно. Скачивайте фильмы в хорошем качестве, игры для пк, xbox, playstation без регистрации. У нас вы найдете новые Зарубежные сериалы и Русские сериалы 2013, 2014, 2015 годов. Оставайтесь с нами, качайте любимые фильмы, игры, сериалы, книги и музыку.
cron