img image001 image001 image001 image001 image001 image001 image001 image001 image001 image001 image001 image001 image001 image001 image001

Planets Sun Sun Sun
Статистика раздачи
Автор: Снежана | Размер: 3.75 ГБ | Добавлен: 24 июл 2013
Раздают: 1    Качают: 2
Скачать торрент
Скачать торрент
Описание торрента

СообщениеДобавлено: 24 июл 2013 

#77

Название: Настоящая любовь
Оригинальное название: Настоящая любовь
Год выхода: 2008
Жанр: Мелодрама
Режиссер: Станислав Мареев
В ролях: Татьяна Федоровская, Игорь Лифанов, Александр Баширов, Сергей Русскин, Анна Самохина, Владимир Турчинский, Анна Лутцева, Ольга Маркина, Сережа Медведев, Алексей Огурцов, Ирина Основина, Юрий Смирнов, Никита Сологалов

О фильме:

Нине почти 20 лет, она инвалид. Несколько лет назад она с папой попала в автомобильную аварию. Отец успел спасти дочь, а сам погиб. С тех пор все в жизни чудом спасшейся девочки идет не так, и с каждым годом становится только хуже... Нина не может забыть ту ужасную катастрофу. Кости сломанной ноги неправильно срастаются, в итоге врачи и вовсе предлагают ампутировать конечность. Мать девушки не в силах ей помочь, бедная женщина очень тяжело переживает потерю любимого мужа и главного кормильца в семье. Она винит во всем Нину, и из-за этого их отношения еще более усложняются. Нина пытается покончить жизнь самоубийством, она вскрывает вены. Врачам удается спасти бедняжку. Но с появлением в коммунальной квартире, где живет Нина, новой соседки все меняется в жизни девочки-инвалида. Тем более что красавицу-актрису повсюду сопровождают двое веселых и привлекательных мужчин.



Выпущено: Россия / Голдберг Пикчерз
Продолжительность: 01:31:34
Озвучивание: Оригинальное [Лицензия]

Файл
Формат: DVD Video
Качество: DVD R5
Видео: PAL 4:3 (720x576@768x576)
Аудио: Russian (Dolby AC3, 2 ch)
Субтитры: нет
Дополнительно: Фотогалерея, Рекламный ролик.

Общее
Полное имя : //Nastoyaschaya.lyubov.2008.DVD-5VIDEO_TSVTS_02_1.VOB
Формат : MPEG-PS
Размер файла : 1024 Мбайт
Продолжительность : 25 м.
Общий поток : 5653 Кбит/сек

Видео
Идентификатор : 224 (0xE0)
Формат : MPEG Video
Версия формата : Version 2
Профиль формата : Main@Main
Параметр BVOP формата : Да
Параметр матрицы формата : По умолчанию
Параметры GOP формата : M=3, N=15
Продолжительность : 25 м.
Вид битрейта : Переменный
Битрейт : 5348 Кбит/сек
Номинальный битрейт : 8400 Кбит/сек
Ширина : 720 пикс.
Высота : 576 пикс.
Соотношение сторон : 4:3
Частота кадров : 25,000 кадр/сек
Стандарт вещания : PAL
Цветовое пространство : YUV
Подвыборка цветности : 4:2:0
Битовая глубина : 8 бит
Тип развёртки : Чересстрочная
Порядок развёртки : Верхнее поле первое
Метод сжатия : С потерями
Бит/(Пиксели*Кадры) : 0.516
Размер потока : 969 Мбайт (95%)

Аудио
Идентификатор : 189 (0xBD)-128 (0x80)
Формат : AC-3
Формат/Информация : Audio Coding 3
Расширение режима : CM (complete main)
Режим смешивания : DVD-Video
Продолжительность : 25 м.
Вид битрейта : Постоянный
Битрейт : 192 Кбит/сек
Каналы : 2 канала
Расположение каналов : Front: L R
Частота : 48,0 КГц
Битовая глубина : 16 бит
Метод сжатия : С потерями
Размер потока : 34,8 Мбайт (3%)

Меню
Общее
Полное имя : //Настоящая ЛюбовьVIDEO_TSVTS_02_2.VOB
Формат : MPEG-PS
Размер файла : 1024 Мбайт
Продолжительность : 24 м.
Общий поток : 5905 Кбит/сек

Видео
Идентификатор : 224 (0xE0)
Формат : MPEG Video
Версия формата : Version 2
Профиль формата : Main@Main
Параметр BVOP формата : Да
Параметр матрицы формата : По умолчанию
Параметры GOP формата : M=3, N=15
Продолжительность : 24 м.
Вид битрейта : Переменный
Битрейт : 5595 Кбит/сек
Номинальный битрейт : 8400 Кбит/сек
Ширина : 720 пикс.
Высота : 576 пикс.
Соотношение сторон : 4:3
Частота кадров : 25,000 кадр/сек
Стандарт вещания : PAL
Цветовое пространство : YUV
Подвыборка цветности : 4:2:0
Битовая глубина : 8 бит
Тип развёртки : Чересстрочная
Порядок развёртки : Верхнее поле первое
Метод сжатия : С потерями
Бит/(Пиксели*Кадры) : 0.540
Размер потока : 970 Мбайт (95%)

Аудио
Идентификатор : 189 (0xBD)-128 (0x80)
Формат : AC-3
Формат/Информация : Audio Coding 3
Расширение режима : CM (complete main)
Режим смешивания : DVD-Video
Продолжительность : 24 м.
Вид битрейта : Постоянный
Битрейт : 192 Кбит/сек
Каналы : 2 канала
Расположение каналов : Front: L R
Частота : 48,0 КГц
Битовая глубина : 16 бит
Метод сжатия : С потерями
Задержка видео : -704 мс.
Размер потока : 33,3 Мбайт (3%)

Меню
Общее
Полное имя : //Настоящая ЛюбовьVIDEO_TSVTS_02_3.VOB
Формат : MPEG-PS
Размер файла : 1024 Мбайт
Продолжительность : 25 м.
Общий поток : 5607 Кбит/сек

Видео
Идентификатор : 224 (0xE0)
Формат : MPEG Video
Версия формата : Version 2
Профиль формата : Main@Main
Параметр BVOP формата : Да
Параметр матрицы формата : По умолчанию
Параметры GOP формата : M=3, N=15
Продолжительность : 25 м.
Вид битрейта : Переменный
Битрейт : 5304 Кбит/сек
Номинальный битрейт : 8400 Кбит/сек
Ширина : 720 пикс.
Высота : 576 пикс.
Соотношение сторон : 4:3
Частота кадров : 25,000 кадр/сек
Стандарт вещания : PAL
Цветовое пространство : YUV
Подвыборка цветности : 4:2:0
Битовая глубина : 8 бит
Тип развёртки : Чересстрочная
Порядок развёртки : Верхнее поле первое
Метод сжатия : С потерями
Бит/(Пиксели*Кадры) : 0.512
Размер потока : 968 Мбайт (95%)

Аудио
Идентификатор : 189 (0xBD)-128 (0x80)
Формат : AC-3
Формат/Информация : Audio Coding 3
Расширение режима : CM (complete main)
Режим смешивания : DVD-Video
Продолжительность : 25 м.
Вид битрейта : Постоянный
Битрейт : 192 Кбит/сек
Каналы : 2 канала
Расположение каналов : Front: L R
Частота : 48,0 КГц
Битовая глубина : 16 бит
Метод сжатия : С потерями
Задержка видео : -544 мс.
Размер потока : 35,1 Мбайт (3%)

Меню

Общее
Полное имя : //Настоящая ЛюбовьVIDEO_TSVTS_02_4.VOB
Формат : MPEG-PS
Размер файла : 656 Мбайт
Продолжительность : 16 м.
Общий поток : 5567 Кбит/сек

Видео
Идентификатор : 224 (0xE0)
Формат : MPEG Video
Версия формата : Version 2
Профиль формата : Main@Main
Параметр BVOP формата : Да
Параметр матрицы формата : По умолчанию
Параметры GOP формата : M=3, N=15
Продолжительность : 16 м.
Вид битрейта : Переменный
Битрейт : 5264 Кбит/сек
Номинальный битрейт : 8400 Кбит/сек
Ширина : 720 пикс.
Высота : 576 пикс.
Соотношение сторон : 4:3
Частота кадров : 25,000 кадр/сек
Стандарт вещания : PAL
Цветовое пространство : YUV
Подвыборка цветности : 4:2:0
Битовая глубина : 8 бит
Тип развёртки : Чересстрочная
Порядок развёртки : Верхнее поле первое
Метод сжатия : С потерями
Бит/(Пиксели*Кадры) : 0.508
Размер потока : 620 Мбайт (95%)

Аудио
Идентификатор : 189 (0xBD)-128 (0x80)
Формат : AC-3
Формат/Информация : Audio Coding 3
Расширение режима : CM (complete main)
Режим смешивания : DVD-Video
Продолжительность : 16 м.
Вид битрейта : Постоянный
Битрейт : 192 Кбит/сек
Каналы : 2 канала
Расположение каналов : Front: L R
Частота : 48,0 КГц
Битовая глубина : 16 бит
Метод сжатия : С потерями
Задержка видео : -600 мс.
Размер потока : 22,6 Мбайт (3%)

Меню







   Похожие торренты   Торрент   Размер 
В этой теме нет новых непрочитанных сообщений. Настоящая любовь (2012) DVD5 | Лицензия

1 | 2

4.13 ГБ

В этой теме нет новых непрочитанных сообщений. Настоящая любовь / True Romance (1993) DVD9+DVD5 | Коллекционное издание

4 | 3

11.13 ГБ

В этой теме нет новых непрочитанных сообщений. Настоящая любовь (2008) DVDRip от Files-X

13 | 4

1.37 ГБ

В этой теме нет новых непрочитанных сообщений. Настоящая любовь (2012) DVDRip | Лицензия

71 | 3

1.46 ГБ

В этой теме нет новых непрочитанных сообщений. Любовь, секс и химия / Любовь по рецепту и без / Better Living Through Chemistry (2014) DVD5 от New-Team | D | Лицензия

112 | 19

4.17 ГБ

В этой теме нет новых непрочитанных сообщений. Настоящая любовь (2012) SATRip

48 | 4

1.33 ГБ

В этой теме нет новых непрочитанных сообщений. Настоящая любовь (2012) HDTVRip

91 | 15

744.94 МБ




Вы не можете начинать темы
Вы не можете отвечать на сообщения
Вы не можете редактировать свои сообщения
Вы не можете удалять свои сообщения
Вы не можете добавлять вложения

Перейти:  
Для Мосгорсуда, Роскомнадзора и рекламодателей: mosgorsud-torrent[собачка]yandex.ru
 Вход
ppkBB3cker v.2 © 2008-2014 @ PPK
[ Time : 0.044s | 14 Queries | GZIP : Off ]

Торрент трекер RUTOR.IN, Не можете зайти на rutor.org? Какой новый адрес рутор? Какое зеркало рутор? Не работает rutor.org и зеркала? Тогда наш торрент специально для вас. Rutor.in неофициальное зеркало rutor. В случае если у Вас заблокирован rutor или вдруг Вы не можете на него зайти, то Вы без труда сможете скачать бесплатно и без рекламы последние новинки кино, игр, сериалов и прочего у нас, на Rutor.in. Не нужно использовать прокси, чтобы зайти на рутор, достаточно воспользоваться нашим ресурсом. Все новые фильмы, игры, сериалы, книги и музыка за 2013 и 2014 годы через торрент бесплатно. Скачивайте фильмы в хорошем качестве, игры для пк, xbox, playstation без регистрации. У нас вы найдете новые Зарубежные сериалы и Русские сериалы 2013, 2014, 2015 годов. Оставайтесь с нами, качайте любимые фильмы, игры, сериалы, книги и музыку.