img image001 image001 image001 image001 image001 image001 image001 image001 image001 image001 image001 image001 image001 image001 image001

Planets Sun Sun Sun
Статистика раздачи
Автор: Снежана | Размер: 3.96 ГБ | Добавлен: 24 июл 2013
Раздают: 3    Качают: 3
Скачать торрент
Скачать торрент
Описание торрента

СообщениеДобавлено: 24 июл 2013 

#77

Информация о фильме
Название: Александра
Оригинальное название: Александра
Год выхода: 2010
Жанр: мелодрама
Режиссер: Юлия Краснова
В ролях: Марина Коняшкина, Владимир Жеребцов, Кирилл Плетнёв, Екатерина Васильева, Дмитрий Зеничев, Алёна Яковлева, Анна Уколова, Евгения Каверау и др...

О фильме:

Саша - фельдшер Скорой помощи. Вся ее жизнь подчинена работе и заботе о муже Романе. Саша и не думает о развлечениях, встречах с подругами и покупках. Все тяжело заработанные деньги она тратит на любимого супруга, а в выходные пишет за него курсовые. Ведь Роман учится в институте, правда, в основном он весело проводит время с друзьями. И вот наступит момент, когда Роману станет скучно с домашней Сашей, и главной героине придется начинать жизнь с "чистого листа" - без мужа и для себя.



Выпущено: Россия / Кинокомпания Русское
Продолжительность: 01:37:28
Озвучивание: Оригинальное

Файл:
Общее
Полное имя : .....Александра DVD5VIDEO_TSVTS_02_1.VOB
Формат : MPEG-PS
Размер файла : 1024 Мбайт
Продолжительность : 24 м.
Общий поток : 5846 Кбит/сек

Видео
Идентификатор : 224 (0xE0)
Формат : MPEG Video
Версия формата : Version 2
Профиль формата : Main@Main
Параметр BVOP формата : Да
Параметр матрицы формата : По умолчанию
Продолжительность : 24 м.
Вид битрейта : Переменный
Битрейт : 5538 Кбит/сек
Номинальный битрейт : 8000 Кбит/сек
Ширина : 720 пикс.
Высота : 576 пикс.
Соотношение сторон : 4:3
Частота кадров : 25,000 кадр/сек
Стандарт вещания : PAL
Цветовое пространство : YUV
Подвыборка цветности : 4:2:0
Битовая глубина : 8 бит
Тип развёртки : Чересстрочная
Порядок развёртки : Нижнее поле первое
Метод сжатия : С потерями
Бит/(Пиксели*Кадры) : 0.534
Размер потока : 970 Мбайт (95%)

Аудио
Идентификатор : 189 (0xBD)-128 (0x80)
Формат : AC-3
Формат/Информация : Audio Coding 3
Расширение режима : CM (complete main)
Режим смешивания : DVD-Video
Продолжительность : 24 м.
Вид битрейта : Постоянный
Битрейт : 192 Кбит/сек
Каналы : 2 канала
Расположение каналов : Front: L R
Частота : 48,0 КГц
Битовая глубина : 16 бит
Метод сжатия : С потерями
Размер потока : 33,6 Мбайт (3%)

Меню


Формат: DVD Video
Качество: DVD
Видео: PAL 4:3 (720x576)
Аудио: Russian (Dolby AC3, 2 ch)
Субтитры: Нет
Дополнительно: Нет




Для анаморфированных DVD допускаются "растянутые" скриншоты с учетом анаморфирования.

Что такое АНАМОРФ:
Изначально видеопоток на DVD имеет разрешение 720х480 для NTSC и 720x576 для PAL. Коэффициенты сжатия (Aspect Ratio), то есть отношение ширины изображения к его длине, будут 1,5 и 1,25 соответственно. Это не совпадает ни с одним из используемых отношений сторон (16:9, 4:3). Любой поток MPEG-2 (именно в этом формате закодировано видео на DVD) имеет DAR флаг, что есть аббревиатура от Display Aspect Ratio - коэффициент сжатия экрана. Он обозначает для телевизоров с каким отношением сторон предназначено видео. Так видео поток с DAR равным 16:9 предназначен для телевизоров или мониторов с отношением сторон 16:9. Берется кадр с отношением сторон 16:9 и искусственно сжимается по ширине, чтобы попасть в разрешение DVD 720X576. Затем у видео потока выставляется DAR, равный 16:9. Этот флаг указывает плееру растянуть изображение, чтобы вернуть ему первоначальные пропорции. Математически это выглядит так, вертикальное разрешение умножается на коэффициент сжатия: 576*16:9=1023,99. Таким образом плееру надо увеличит ширину картинки до 1024 точек. Это называется анаморфированное широкоэкранное изображение (Anamorphic widescreen). Это самое правильное преобразование, так как позволяет максимально использовать вертикальное разрешение экрана. В таком случае на DVD пишут: адаптировано для широкоформатных телевизоров.

Разрешения видео при анаморфировании:
PAL 16:9 - 1024х576
PAL 4:3 - 768х576
NTSC 16:9 - 854х480
NTSC 4:3 - 640x480 или 720х540
Скриншоты любых других размеров (не указанных выше) будут считаться неправильными и будут удалятся.



   Похожие торренты   Торрент   Размер 
В этой теме нет новых непрочитанных сообщений. Comedy Club. Бенефисы Александра Реввы (2009) DVD5

4 | 4

4.37 ГБ

В этой теме нет новых непрочитанных сообщений. Сказки Александра Роу: Марья-искусница; Новые похождения Кота в сапогах (1958-1959) DVD5

120 | 19

4.13 ГБ

В этой теме нет новых непрочитанных сообщений. Сказки Александра Роу: Королевство кривых зеркал; Морозко; Финист - Ясный сокол (1963-1975) DVD5

287 | 18

4.15 ГБ

В этой теме нет новых непрочитанных сообщений. Сказки Александра Роу: Варвара-краса, длинная коса; Золотые рога; Огонь, вода и ... медные трубы (1968-1972) DVD5

83 | 21

4.17 ГБ

В этой теме нет новых непрочитанных сообщений. Александра (2010) DVDRip

45 | 4

1.17 ГБ

В этой теме нет новых непрочитанных сообщений. Александра (2010) DVDRip

21 | 3

697.58 МБ

В этой теме нет новых непрочитанных сообщений. Александра (2010) SATRip

84 | 2

1.09 ГБ




Вы не можете начинать темы
Вы не можете отвечать на сообщения
Вы не можете редактировать свои сообщения
Вы не можете удалять свои сообщения
Вы не можете добавлять вложения

Перейти:  
Для Мосгорсуда, Роскомнадзора и рекламодателей: mosgorsud-torrent[собачка]yandex.ru
 Вход
ppkBB3cker v.2 © 2008-2014 @ PPK
[ Time : 0.055s | 14 Queries | GZIP : Off ]

Торрент трекер RUTOR.IN, Не можете зайти на rutor.org? Какой новый адрес рутор? Какое зеркало рутор? Не работает rutor.org и зеркала? Тогда наш торрент специально для вас. Rutor.in неофициальное зеркало rutor. В случае если у Вас заблокирован rutor или вдруг Вы не можете на него зайти, то Вы без труда сможете скачать бесплатно и без рекламы последние новинки кино, игр, сериалов и прочего у нас, на Rutor.in. Не нужно использовать прокси, чтобы зайти на рутор, достаточно воспользоваться нашим ресурсом. Все новые фильмы, игры, сериалы, книги и музыка за 2013 и 2014 годы через торрент бесплатно. Скачивайте фильмы в хорошем качестве, игры для пк, xbox, playstation без регистрации. У нас вы найдете новые Зарубежные сериалы и Русские сериалы 2013, 2014, 2015 годов. Оставайтесь с нами, качайте любимые фильмы, игры, сериалы, книги и музыку.