img image001 image001 image001 image001 image001 image001 image001 image001 image001 image001 image001 image001 image001 image001 image001

Planets Sun Sun Sun
Статистика раздачи
Автор: Снежана | Размер: 1.37 ГБ | Добавлен: 24 июл 2013
Раздают: 54    Качают: 7
Скачать торрент
Скачать торрент
Описание торрента

СообщениеДобавлено: 24 июл 2013 

#77

Информация о фильме
Оригинальное название: Янтарные крылья
Год выпуска: 2003
Жанр: Мелодрама
Выпущено: Россия, "ТВ Центр", к/студия "Вертикаль"
Режиссер: Андрей Разенков
В ролях: Алена Бондарчук, Александр Балуев, Ирина Скобцева, Лембит Ульфсак, Арнис Лицитис, Ита Эвер, Вальдо Рейтель, Мерле Пальмисте, Тим-Таниэль Путинг, Елле Кюлль, Элизабет Тамм, Лийна-Рийн Олмару, Арго Ааоли, Евгений Гайчук, Рийна Руус

О фильме: Однажды в прекрасный рождественский вечер в маленьком магазинчике старого Таллинна встречаются двое: адвокат из Германии и актриса из России. И под пронзительную музыку Мишеля Леграна на наших глазах оживает почти андерсоновская сказка о непростой любви взрослых людей... У каждой сказки свой конец. Судьбы героев этой истории связаны с загадками старого особняка...



Релиз от:

http://sendfile.su/412514

General
Complete name : H:FilmМОИНовая папкаYantarnie.krylija.2003.XviD.DVDRip.Files-X.avi
Format : AVI
Format/Info : Audio Video Interleave
File size : 1.37 GiB
Duration : 1h 38mn
Overall bit rate : 1 986 Kbps
Writing application : VirtualDubMod 1.5.10.2 (build 2540/release)
Writing library : VirtualDubMod build 2540/release

Video
ID : 0
Format : MPEG-4 Visual
Format profile : Advanced Simple@L5
Format settings, BVOP : 1
Format settings, QPel : No
Format settings, GMC : No warppoints
Format settings, Matrix : Default (MPEG)
Codec ID : XVID
Codec ID/Hint : XviD
Duration : 1h 38mn
Bit rate : 1 784 Kbps
Width : 704 pixels
Height : 400 pixels
Display aspect ratio : 16:9
Frame rate : 25.000 fps
Color space : YUV
Chroma subsampling : 4:2:0
Bit depth : 8 bits
Scan type : Progressive
Compression mode : Lossy
Bits/(Pixel*Frame) : 0.253
Stream size : 1.23 GiB (90%)
Writing library : XviD 1.2.1 (UTC 2008-12-04)

Audio
ID : 1
Format : AC-3
Format/Info : Audio Coding 3
Mode extension : CM (complete main)
Codec ID : 2000
Duration : 1h 38mn
Bit rate mode : Constant
Bit rate : 192 Kbps
Channel(s) : 2 channels
Channel positions : Front: L R
Sampling rate : 48.0 KHz
Bit depth : 16 bits
Compression mode : Lossy
Stream size : 135 MiB (10%)
Alignment : Split accross interleaves
Interleave, duration : 40 ms (1.00 video frame)
Interleave, preload duration : 500 ms

Продолжительность: 01:30:15
Перевод: не требуется

Файл
Формат: AVI
Качество: DVDRip
Видео: XviD, 25.000 fps, 704x400, 1784 Кбит/с
Аудио: АС3, 48.0 KHz, 2ch, 192 Кбит/с




   Похожие торренты   Торрент   Размер 
В этой теме нет новых непрочитанных сообщений. Крылья / Pankh (2010) DVDRip от Files-x

3 | 2

1.46 ГБ

В этой теме нет новых непрочитанных сообщений. Крылья [01-04 из 04] (2016) DVB от Files-x

10 | 1

3.58 ГБ

В этой теме нет новых непрочитанных сообщений. Крылья [01-02 из 04] (2016) SATRip-AVC от Files-x

2 | 0

1.59 ГБ

В этой теме нет новых непрочитанных сообщений. Крылья [01 из 04] (2016) WEB-DLRip-AVC от Files-x

0 | 0

570.59 МБ

В этой теме нет новых непрочитанных сообщений. Крылья [01 из 04] (2016) WEB-DLRip-AVC от Files-x

1 | 5

2.26 ГБ

В этой теме нет новых непрочитанных сообщений. Крылья [01-02 из 04] (2016) SATRip от Files-x

31 | 1

2.15 ГБ

В этой теме нет новых непрочитанных сообщений. Крылья империи [01 из 12] (2017) HDTVRip-AVC от Files-x

73 | 18

3.21 ГБ




Вы не можете начинать темы
Вы не можете отвечать на сообщения
Вы не можете редактировать свои сообщения
Вы не можете удалять свои сообщения
Вы не можете добавлять вложения

Перейти:  
Для Мосгорсуда, Роскомнадзора и рекламодателей: mosgorsud-torrent[собачка]yandex.ru
 Вход
ppkBB3cker v.2 © 2008-2014 @ PPK
[ Time : 0.040s | 15 Queries | GZIP : Off ]

cron