img image001 image001 image001 image001 image001 image001 image001 image001 image001 image001 image001 image001 image001 image001 image001

Planets Sun Sun Sun
Статистика раздачи
Автор: Снежана | Размер: 2.05 ГБ | Добавлен: 24 июл 2013
Раздают: 156    Качают: 15
Скачать торрент
Скачать торрент
Описание торрента

СообщениеДобавлено: 24 июл 2013 

#77

Информация о фильме
Оригинальное название: Мёртвое поле
Год выхода: 2006
Жанр: Военный, драма
Выпущено:Россия, Дар:ХХI
Режиссер: Александр Аравин
В ролях: Янина Соколовская, Алексей Шевченков, Алексей Бардуков, Иван Стебунов, Константин Милованов, Шамиль Хаматов, Михаил Шкловский

О фильме:
События разворачиваются в период второй чеченской кампании на границе Чечни и Ставропольского края. Рядом с посёлком, где живут обыкновенные люди, стоит воинская часть, где служат простые российские солдаты. Подразделением саперов, состоящим в основном из мальчишек-призывников, командует молодой лейтенант, когда-то мечтавший стать летчиком. Он получает приказ разминировать бывшее хлебное поле, на котором никто не сеет уже более 10 лет. Военные и местные жители называют его «мертвым»…



Релиз от:

http://sendfile.su/412551

General
Complete name : H:FilmМОИНовая папкаMertvoe.pole.2006.XviD.DVDRip.Files-X.avi
Format : AVI
Format/Info : Audio Video Interleave
Format profile : OpenDML
File size : 2.05 GiB
Duration : 1h 51mn
Overall bit rate : 2 628 Kbps
Writing application : VirtualDubMod 1.5.10.2 (build 2540/release)
Writing library : VirtualDubMod build 2540/release

Video
ID : 0
Format : MPEG-4 Visual
Format profile : Advanced Simple@L5
Format settings, BVOP : 1
Format settings, QPel : No
Format settings, GMC : No warppoints
Format settings, Matrix : Default (MPEG)
Codec ID : XVID
Codec ID/Hint : XviD
Duration : 1h 51mn
Bit rate : 2 360 Kbps
Width : 704 pixels
Height : 400 pixels
Display aspect ratio : 16:9
Frame rate : 25.000 fps
Color space : YUV
Chroma subsampling : 4:2:0
Bit depth : 8 bits
Scan type : Progressive
Compression mode : Lossy
Bits/(Pixel*Frame) : 0.335
Stream size : 1.84 GiB (90%)
Writing library : XviD 1.2.1 (UTC 2008-12-04)

Audio
ID : 1
Format : AC-3
Format/Info : Audio Coding 3
Mode extension : CM (complete main)
Codec ID : 2000
Duration : 1h 51mn
Bit rate mode : Constant
Bit rate : 256 Kbps
Channel(s) : 2 channels
Channel positions : Front: L R
Sampling rate : 48.0 KHz
Bit depth : 16 bits
Compression mode : Lossy
Stream size : 205 MiB (10%)
Alignment : Split accross interleaves
Interleave, duration : 40 ms (1.00 video frame)
Interleave, preload duration : 500 ms


Продолжительность: 01:51:00
Перевод: не требуется

Файл
Формат: AVI
Качество: DVDRip
Видео: XviD, 25.000 fps, 704х400, 2360 Кбит/с
Аудио: АС3, 48.0 KHz, 2ch, 256 Кбит/с




   Похожие торренты   Торрент   Размер 
В этой теме нет новых непрочитанных сообщений. Мертвое поле (2006) DVDRip от FLGroup

5 | 6

727.93 МБ

В этой теме нет новых непрочитанных сообщений. Мертвое поле (2006) DVDRip-AVC от Тorrent-Хzona

49 | 5

1.71 ГБ

В этой теме нет новых непрочитанных сообщений. Мёртвое поле / The Killing Field (2014) DVDRip | L2

1287 | 156

704.02 МБ

В этой теме нет новых непрочитанных сообщений. Мёртвое поле / The Killing Field (2014) DVDRip | L2

1533 | 63

1.37 ГБ

В этой теме нет новых непрочитанных сообщений. Поле битвы / Поле боя / Aadukalam (2011) SATRip от Files-x | P

6 | 5

2.25 ГБ

В этой теме нет новых непрочитанных сообщений. Алексей Гравицкий, Михаил Костин – Живое и мертвое 01. Живое и мёртвое (2015) MP3

229 | 5

695.7 МБ

В этой теме нет новых непрочитанных сообщений. Северное море — мертвое море / Nordsee ist Mordsee (1976) DVDRip-AVC | L1

23 | 8

1.26 ГБ




Вы не можете начинать темы
Вы не можете отвечать на сообщения
Вы не можете редактировать свои сообщения
Вы не можете удалять свои сообщения
Вы не можете добавлять вложения

Перейти:  
Для Мосгорсуда, Роскомнадзора и рекламодателей: mosgorsud-torrent[собачка]yandex.ru
 Вход
ppkBB3cker v.2 © 2008-2014 @ PPK
[ Time : 0.038s | 17 Queries | GZIP : Off ]
CGP output time : 0.046s | 7 Queries | GZIP : Off

Торрент трекер RUTOR.IN, Не можете зайти на rutor.org? Какой новый адрес рутор? Какое зеркало рутор? Не работает rutor.org и зеркала? Тогда наш торрент специально для вас. Rutor.in неофициальное зеркало rutor. В случае если у Вас заблокирован rutor или вдруг Вы не можете на него зайти, то Вы без труда сможете скачать бесплатно и без рекламы последние новинки кино, игр, сериалов и прочего у нас, на Rutor.in. Не нужно использовать прокси, чтобы зайти на рутор, достаточно воспользоваться нашим ресурсом. Все новые фильмы, игры, сериалы, книги и музыка за 2013 и 2014 годы через торрент бесплатно. Скачивайте фильмы в хорошем качестве, игры для пк, xbox, playstation без регистрации. У нас вы найдете новые Зарубежные сериалы и Русские сериалы 2013, 2014, 2015 годов. Оставайтесь с нами, качайте любимые фильмы, игры, сериалы, книги и музыку.