img image001 image001 image001 image001 image001 image001 image001 image001 image001 image001 image001 image001 image001 image001 image001

Planets Sun Sun Sun
Статистика раздачи
Автор: Снежана | Размер: 1.37 ГБ | Добавлен: 24 июл 2013
Раздают: 37    Качают: 8
Скачать торрент
Скачать торрент
Описание торрента

СообщениеДобавлено: 24 июл 2013 

#77

Информация о фильме
Оригинальное название: Поклонник
Год выпуска: 1999
Жанр: Драма, триллер
Выпущено: Россия, НТВ-Профит
Режиссер: Николай Лебедев
В ролях: Светлана Тома, Елена Сафонова, Марина Черепухина, Сергей Гармаш, Нина Усатова, Борис Щербаков, Константин Хабенский, Мария Порошина, Михаил Дорожкин, Михаил Крылов, Антон Колесников, Андрей Андреев

О фильме: Родители 13-летней Лены развелись. Желая показать, что они с мамой прекрасно живут и вдвоем, и доказать взрослым свою самостоятельность, Лена устраивается работать на почту, пустив в ход свою изобретательность и обаяние. В почтовом отделении только и разговоров, что о серийном убийце, который держит в страхе весь район. Однажды вечером незнакомец, лица которого она не успела разглядеть, защищает Лену от хулиганов и продолжает инкогнито помогать ей. Лена готова поверить сама и убедить остальных, что ее опекает тот самый ужасный маньяк. Отношения со странным поклонником, готовым выполнить все ее указания, поначалу кажутся Лене увлекательной игрой. Но вскоре она убеждается, что эта игра становится смертельно опасной...



Релиз от:

http://sendfile.su/412582

General
Complete name : H:FilmМОИНовая папкаPoklonnik.1999.XviD.DVDRip.Files-X.avi
Format : AVI
Format/Info : Audio Video Interleave
File size : 1.37 GiB
Duration : 1h 33mn
Overall bit rate : 2 107 Kbps
Writing application : VirtualDubMod 1.5.10.2 (build 2540/release)
Writing library : VirtualDubMod build 2540/release

Video
ID : 0
Format : MPEG-4 Visual
Format profile : Advanced Simple@L5
Format settings, BVOP : 1
Format settings, QPel : No
Format settings, GMC : No warppoints
Format settings, Matrix : Default (MPEG)
Codec ID : XVID
Codec ID/Hint : XviD
Duration : 1h 33mn
Bit rate : 1 649 Kbps
Width : 704 pixels
Height : 400 pixels
Display aspect ratio : 16:9
Frame rate : 25.000 fps
Color space : YUV
Chroma subsampling : 4:2:0
Bit depth : 8 bits
Scan type : Progressive
Compression mode : Lossy
Bits/(Pixel*Frame) : 0.234
Stream size : 1.07 GiB (78%)
Writing library : XviD 1.2.1 (UTC 2008-12-04)

Audio
ID : 1
Format : AC-3
Format/Info : Audio Coding 3
Mode extension : CM (complete main)
Codec ID : 2000
Duration : 1h 33mn
Bit rate mode : Constant
Bit rate : 448 Kbps
Channel(s) : 6 channels
Channel positions : Front: L C R, Side: L R, LFE
Sampling rate : 48.0 KHz
Bit depth : 16 bits
Compression mode : Lossy
Stream size : 298 MiB (21%)
Alignment : Split accross interleaves
Interleave, duration : 40 ms (1.00 video frame)
Interleave, preload duration : 500 ms


Продолжительность: 01:33:03
Перевод: не требуется

Файл
Формат: AVI
Качество: DVDRip
Видео: XviD, 25.000 fps, 704х400, 1649 Кбит/с
Аудио: АС3, 48.0 KHz, 6ch, 448 Кбит/с




   Похожие торренты   Торрент   Размер 
В этой теме нет новых непрочитанных сообщений. Поклонник (1999) DVDRip от Scarabey

9 | 16

741.77 МБ

В этой теме нет новых непрочитанных сообщений. Поклонник (1999) DVDRip от Scarabey

59 | 51

1.45 ГБ

В этой теме нет новых непрочитанных сообщений. Тайный поклонник / Secret Admirer (1985) DVDRip-AVC

1 | 2

2.1 ГБ

В этой теме нет новых непрочитанных сообщений. Тайный поклонник / Secret Admirer (1985) DVDRip от Киномагия

15 | 3

1.37 ГБ

В этой теме нет новых непрочитанных сообщений. Молох (1999) DVDRip от Files-x

101 | 15

2.35 ГБ

В этой теме нет новых непрочитанных сообщений. Подкидыш / Gair (1999) DVDRip от Files-x

7 | 3

2.44 ГБ

В этой теме нет новых непрочитанных сообщений. Иисус. Бог и человек / Jesus (1999) DVDRip от Files-x

283 | 3

2.74 ГБ




Вы не можете начинать темы
Вы не можете отвечать на сообщения
Вы не можете редактировать свои сообщения
Вы не можете удалять свои сообщения
Вы не можете добавлять вложения

Перейти:  
Для Мосгорсуда, Роскомнадзора и рекламодателей: mosgorsud-torrent[собачка]yandex.ru
 Вход
ppkBB3cker v.2 © 2008-2014 @ PPK
[ Time : 2.849s | 14 Queries | GZIP : On ]

Торрент трекер RUTOR.IN, Не можете зайти на rutor.org? Какой новый адрес рутор? Какое зеркало рутор? Не работает rutor.org и зеркала? Тогда наш торрент специально для вас. Rutor.in неофициальное зеркало rutor. В случае если у Вас заблокирован rutor или вдруг Вы не можете на него зайти, то Вы без труда сможете скачать бесплатно и без рекламы последние новинки кино, игр, сериалов и прочего у нас, на Rutor.in. Не нужно использовать прокси, чтобы зайти на рутор, достаточно воспользоваться нашим ресурсом. Все новые фильмы, игры, сериалы, книги и музыка за 2013 и 2014 годы через торрент бесплатно. Скачивайте фильмы в хорошем качестве, игры для пк, xbox, playstation без регистрации. У нас вы найдете новые Зарубежные сериалы и Русские сериалы 2013, 2014, 2015 годов. Оставайтесь с нами, качайте любимые фильмы, игры, сериалы, книги и музыку.