img image001 image001 image001 image001 image001 image001 image001 image001 image001 image001 image001 image001 image001 image001 image001

Planets Sun Sun Sun
Статистика раздачи
Автор: Снежана | Размер: 4.28 ГБ | Добавлен: 24 июл 2013
Раздают: 8    Качают: 5
Скачать торрент
Скачать торрент
Описание торрента

СообщениеДобавлено: 24 июл 2013 

Даже не думай



Год выпуска: 2003
Страна: Россия
Жанр: комедия, криминал
Продолжительность: 01:23:00
Перевод: не требуется
Cубтитры: отсутствуют

Режиссер: Руслан Бальтцер
Продюссер: Игорь Бондаренко, Сергей Грибков, Владимир Трущенков
Сценарий: Александра Большакова



В ролях: Алексей Панин, Алексей Алексеев, Сергей Мухин, Дельфин, Игорь Ясулович, Андрей Панин, Валерий Николаев

Описание: «Даже не думай!» — это крылатая фраза, которую произносит любой уважающий себя супергерой боевика. Главные герои — безработный актер, спортсмен и работник видеопроката — молодые, сильные духом и веселые ребята. В криминальном мире свои законы, но новичкам всегда везет.

Бросив вызов миру, ребята действуют на свой страх и риск, не думая о последствиях. Обычные парни с юношеским задором и чувством юмора, не супермены, но авантюристы, они строят свою жизнь спонтанно, как получится. Насмотревшись фильмов, и подражая героям боевиков, ребята решаются «пойти на дело»…



Качество: DVD5
Формат: DVD Video
Видео кодек: MPEG2
Аудио кодек: AC3
Видео: PAL 16:9 (720x576) VBR 6293 Кбит/сек , 25,000 кадр/сек
Аудио: Russian (Dolby AC3, 6 ch) , 448 Кбит/сек , 48,0 КГц
Общее
Полное имя : C:ЗагрузкиДаже не думай 1 (2003) DVD5VIDEO_TSVTS_03_1.VOB
Формат : MPEG-PS
Размер файла : 1024 Мбайт
Продолжительность : 20 м.
Общий поток : 6878 Кбит/сек

Видео
Идентификатор : 224 (0xE0)
Формат : MPEG Video
Версия формата : Version 2
Профиль формата : Main@Main
Параметр BVOP формата : Да
Параметр матрицы формата : По умолчанию
Параметры GOP формата : M=3, N=15
Продолжительность : 20 м.
Вид битрейта : Переменный
Битрейт : 6293 Кбит/сек
Номинальный битрейт : 8500 Кбит/сек
Ширина : 720 пикс.
Высота : 576 пикс.
Соотношение сторон : 4:3
Частота кадров : 25,000 кадр/сек
Стандарт вещания : PAL
Цветовое пространство : YUV
Подвыборка цветности : 4:2:0
Битовая глубина : 8 бит
Тип развёртки : Чересстрочная
Порядок развёртки : Верхнее поле первое
Метод сжатия : С потерями
Бит/(Пиксели*Кадры) : 0.607
Размер потока : 937 Мбайт (91%)

Аудио
Идентификатор : 189 (0xBD)-128 (0x80)
Формат : AC-3
Формат/Информация : Audio Coding 3
Расширение режима : CM (complete main)
Режим смешивания : DVD-Video
Продолжительность : 20 м.
Вид битрейта : Постоянный
Битрейт : 448 Кбит/сек
Канал(ы) : 6 канала(ов)
Расположение каналов : Front: L C R, Side: L R, LFE
Частота : 48,0 КГц
Битовая глубина : 16 бит
Метод сжатия : С потерями
Задержка видео : -80 мс.
Размер потока : 66,7 Мбайт (7%)

Меню







   Похожие торренты   Торрент   Размер 
В этой теме нет новых непрочитанных сообщений. Даже не думай (2003) DVDRip

81 | 12

1.37 ГБ

В этой теме нет новых непрочитанных сообщений. Даже не думай 2: Тень независимости (2004) DVD5

14 | 5

3.86 ГБ

В этой теме нет новых непрочитанных сообщений. Даже не думай 2: Тень независимости (2004) DVDRip от Кинорадиомагия

222 | 23

1.37 ГБ

В этой теме нет новых непрочитанных сообщений. Кофе и чувства - Мне Не Хочется Ничего, Даже Находиться (2015) MP3

22 | 3

83.32 МБ

В этой теме нет новых непрочитанных сообщений. Они продают даже дождь / Tambien la lluvia (2010) HDRip

3 | 6

1.37 ГБ

В этой теме нет новых непрочитанных сообщений. Они продают даже дождь / También la lluvia (2010) BDRip 720p

0 | 1

5.46 ГБ

В этой теме нет новых непрочитанных сообщений. Даже у ягнят есть зубы / Even Lambs Have Teeth (2015) WEB-DLRip | L

424 | 108

1.37 ГБ




Вы не можете начинать темы
Вы не можете отвечать на сообщения
Вы не можете редактировать свои сообщения
Вы не можете удалять свои сообщения
Вы не можете добавлять вложения

Перейти:  
Для Мосгорсуда, Роскомнадзора и рекламодателей: mosgorsud-torrent[собачка]yandex.ru
 Вход
ppkBB3cker v.2 © 2008-2014 @ PPK
[ Time : 0.036s | 15 Queries | GZIP : Off ]

cron