img image001 image001 image001 image001 image001 image001 image001 image001 image001 image001 image001 image001 image001 image001 image001

Planets Sun Sun Sun
Статистика раздачи
Автор: Снежана | Размер: 4.16 ГБ | Добавлен: 24 июл 2013
Раздают: 5    Качают: 5
Скачать торрент
Скачать торрент
Описание торрента

СообщениеДобавлено: 24 июл 2013 

#77

Год выпуска: 2011
Страна: Россия
Киностудия: Пирамида
Жанр: Мелодрама
Продолжительность: 01:33:33
Перевод: Не требуется
Cубтитры: нет
Режиссер: Сергей Крутин
В ролях: Ирина Купченко, Михаил Жигалов, Агния Кузнецова, Ярослав Жалнин, Юрий Степанов, Михаил Горносталь, Ирина Токарчук...

Описание:

По одноименному произведению Александры Камышовой.
На лето к бабушке Лидии Петровне, которая живет на море, приезжает внучка-студентка Ирина. Между ними непростые отношения: они редко видятся, так как отец Ирины (сын Лидии Петровны) давно умер, а между невесткой и свекровью отношения не сложились с самого начала.
На первый взгляд бабушка и внучка очень разные. Ирину смешит старомодная деликатность Лидии Петровны, а ту, в свою очередь, тревожит прямолинейность и категоричность внучки. Но постепенно между ними возникают душевная близость, взаимопонимание, и внучка начинает меняться под влиянием бабушки.
Лидия Петровна пробуждает в юной Ирине женственность, мудрость, деликатность к чужим чувствам и стремлениям. Более того, она незаметно помогает ей рассмотреть в соседском пареньке того мужчину, с которым можно прожить всю жизнь.



Сэмпл

Тип релиза: DVD5 (сжатый), исходник DVD9
Контейнер: DVD-Video
Видео: PAL 16:9 (720x576) VBR 6148 Kbps, Auto Letterboxed
Аудио: Dolby AC3, 2 ch, 224 Kbps, 48kHz
Меню: частично анимированное
Доп.материалы: нет

Убал все допы (если бы было что-то стоящее, я б часть оставил, но анонсы достали:)), рекламу и предупреждения, исправил меню, болше ничего не трогал. Программы: Фотошоп, MuxMan, DVDRemake. Автор рипа avproh


Общее
Полное имя : ///Para.gnedyh.2009.O.DVD5VIDEO_TSVTS_03_1.VOB
Формат : MPEG-PS
Размер файла : 1024 Мбайт
Продолжительность : 22 м.
Общий поток : 6341 Кбит/сек

Видео
Идентификатор : 224 (0xE0)
Формат : MPEG Video
Версия формата : Version 2
Профиль формата : Main@Main
Параметр BVOP формата : Да
Параметр матрицы формата : По умолчанию
Параметры GOP формата : M=3, N=12
Продолжительность : 22 м.
Вид битрейта : Переменный
Битрейт : 5991 Кбит/сек
Номинальный битрейт : 7500 Кбит/сек
Ширина : 720 пикс.
Высота : 576 пикс.
Соотношение сторон : 16:9
Частота кадров : 25,000 кадр/сек
Стандарт вещания : PAL
Цветовое пространство : YUV
Подвыборка цветности : 4:2:0
Битовая глубина : 8 бит
Тип развёртки : Прогрессивная
Метод сжатия : С потерями
Бит/(Пиксели*Кадры) : 0.578
Размер потока : 967 Мбайт (94%)

Аудио
Идентификатор : 189 (0xBD)-128 (0x80)
Формат : AC-3
Формат/Информация : Audio Coding 3
Расширение режима : CM (complete main)
Режим смешивания : DVD-Video
Продолжительность : 22 м.
Вид битрейта : Постоянный
Битрейт : 224 Кбит/сек
Каналы : 2 канала
Расположение каналов : Front: L R
Частота : 48,0 КГц
Битовая глубина : 16 бит
Метод сжатия : С потерями
Размер потока : 36,2 Мбайт (4%)

Меню






   Похожие торренты   Торрент   Размер 
В этой теме нет новых непрочитанных сообщений. Пара Гнедых (2009) DVDRip

22 | 5

1.37 ГБ

В этой теме нет новых непрочитанных сообщений. Пара Гнедых (2009) SATRip

0 | 2

1.37 ГБ

В этой теме нет новых непрочитанных сообщений. Пара Гнедых (2009) DVDRip-AVC от potroks

355 | 4

1.37 ГБ

В этой теме нет новых непрочитанных сообщений. Обреченные на войну (2009) DVD5 | Сжатый

0 | 2

4.16 ГБ

В этой теме нет новых непрочитанных сообщений. Бугай / Boogie, el aceitoso 2D (2009) DVD5 | сжатый

0 | 1

3.8 ГБ

В этой теме нет новых непрочитанных сообщений. Футбольные гладиаторы / Awaydays (2009) DVD5 от Youtracker | P | сжатый

4 | 3

4.37 ГБ

В этой теме нет новых непрочитанных сообщений. Тайна в его глазах / El secreto de sus ojos (2009) DVD5 от Youtracker | P | Сжатый

5 | 2

4.37 ГБ




Вы не можете начинать темы
Вы не можете отвечать на сообщения
Вы не можете редактировать свои сообщения
Вы не можете удалять свои сообщения
Вы не можете добавлять вложения

Перейти:  
Для Мосгорсуда, Роскомнадзора и рекламодателей: mosgorsud-torrent[собачка]yandex.ru
 Вход
ppkBB3cker v.2 © 2008-2014 @ PPK
[ Time : 0.057s | 15 Queries | GZIP : Off ]

Торрент трекер RUTOR.IN, Не можете зайти на rutor.org? Какой новый адрес рутор? Какое зеркало рутор? Не работает rutor.org и зеркала? Тогда наш торрент специально для вас. Rutor.in неофициальное зеркало rutor. В случае если у Вас заблокирован rutor или вдруг Вы не можете на него зайти, то Вы без труда сможете скачать бесплатно и без рекламы последние новинки кино, игр, сериалов и прочего у нас, на Rutor.in. Не нужно использовать прокси, чтобы зайти на рутор, достаточно воспользоваться нашим ресурсом. Все новые фильмы, игры, сериалы, книги и музыка за 2013 и 2014 годы через торрент бесплатно. Скачивайте фильмы в хорошем качестве, игры для пк, xbox, playstation без регистрации. У нас вы найдете новые Зарубежные сериалы и Русские сериалы 2013, 2014, 2015 годов. Оставайтесь с нами, качайте любимые фильмы, игры, сериалы, книги и музыку.