img image001 image001 image001 image001 image001 image001 image001 image001 image001 image001 image001 image001 image001 image001 image001

Planets Sun Sun Sun
Статистика раздачи
Автор: Снежана | Размер: 3.86 ГБ | Добавлен: 24 июл 2013
Раздают: 14    Качают: 5
Скачать торрент
Скачать торрент
Описание торрента

СообщениеДобавлено: 24 июл 2013 

#77

Даже не думай 2: Тень независимости
Год выпуска: 2004
Страна: Россия
Жанр: фантастика, триллер, комедия, криминал, приключения
Продолжительность: 01:38:00
Перевод: Не требуется
Cубтитры: Нет

Режиссер: Руслан Бальтцер
Продюссер: Сергей Грибков, Константин Гривски, Владимир Трущенков
Сценарий: Руслан Бальтцер, Александра Большакова

В ролях:
Алексей Алексеев, Сергей Мухин, Артем Ткаченко, Дельфин, Алексей Горбунов, Максим Лагашкин, Александр Робак, Александр Семчев, Евгений Стычкин, Игорь Ганжа, Алексей Кортнев, Сергей Рубан, Алексей Панин, Андрей Панин, Анастасия Цветаева

Описание:
Приключения полюбившейся зрителям троицы героев — Марата, Белого и Ника — продолжаются. Итак, они снова вместе, они независимы, и только они могут спасти мир от коварных планов зловещего «Ордена свингеров»…



Качество: DVD5
Формат: DVD Video
Видео кодек: MPEG2
Аудио кодек: AC3
Видео: PAL 16:9 (720x576) VBR 5038 Кбит/сек , 25,000 кадр/сек
Аудио : Russian (Dolby AC3, 6 ch) , 384 Кбит/сек , 48,0 КГц

Общее
Полное имя : C:ЗагрузкиДаже не думай 2 (2004) DVD5VIDEO_TSVTS_01_1.VOB
Формат : MPEG-PS
Размер файла : 1024 Мбайт
Продолжительность : 25 м.
Общий поток : 5532 Кбит/сек

Видео
Идентификатор : 224 (0xE0)
Формат : MPEG Video
Версия формата : Version 2
Профиль формата : Main@Main
Параметр BVOP формата : Да
Параметр матрицы формата : По умолчанию
Параметры GOP формата : M=2, N=12
Продолжительность : 25 м.
Вид битрейта : Переменный
Битрейт : 5038 Кбит/сек
Номинальный битрейт : 9800 Кбит/сек
Ширина : 720 пикс.
Высота : 576 пикс.
Соотношение сторон : 4:3
Частота кадров : 25,000 кадр/сек
Стандарт вещания : PAL
Цветовое пространство : YUV
Подвыборка цветности : 4:2:0
Битовая глубина : 8 бит
Тип развёртки : Чересстрочная
Порядок развёртки : Верхнее поле первое
Метод сжатия : С потерями
Бит/(Пиксели*Кадры) : 0.486
Размер потока : 932 Мбайт (91%)

Аудио
Идентификатор : 189 (0xBD)-128 (0x80)
Формат : AC-3
Формат/Информация : Audio Coding 3
Расширение режима : CM (complete main)
Режим смешивания : DVD-Video
Продолжительность : 25 м.
Вид битрейта : Постоянный
Битрейт : 384 Кбит/сек
Канал(ы) : 6 канала(ов)
Расположение каналов : Front: L C R, Side: L R, LFE
Частота : 48,0 КГц
Битовая глубина : 16 бит
Метод сжатия : С потерями
Размер потока : 71,0 Мбайт (7%)

Меню











   Похожие торренты   Торрент   Размер 
В этой теме нет новых непрочитанных сообщений. Даже не думай 2: Тень независимости (2004) DVDRip от Кинорадиомагия

222 | 23

1.37 ГБ

В этой теме нет новых непрочитанных сообщений. Даже не думай (2003) DVD5

8 | 5

4.28 ГБ

В этой теме нет новых непрочитанных сообщений. Даже не думай (2003) DVDRip

81 | 12

1.37 ГБ

В этой теме нет новых непрочитанных сообщений. 7000$ - Тень независимости (2014) MP3

150 | 14

128.58 МБ

В этой теме нет новых непрочитанных сообщений. 7000$ - Тень Независимости (Explicit Version) (2014) MP3

39 | 7

129.5 МБ

В этой теме нет новых непрочитанных сообщений. День независимости: Возрождение / Independence Day: Resurgence (2016) DVD5

8 | 0

4.36 ГБ

В этой теме нет новых непрочитанных сообщений. Тень (1971) DVD5

9 | 4

4.17 ГБ




Вы не можете начинать темы
Вы не можете отвечать на сообщения
Вы не можете редактировать свои сообщения
Вы не можете удалять свои сообщения
Вы не можете добавлять вложения

Перейти:  
Для Мосгорсуда, Роскомнадзора и рекламодателей: mosgorsud-torrent[собачка]yandex.ru
 Вход
ppkBB3cker v.2 © 2008-2014 @ PPK
[ Time : 0.028s | 16 Queries | GZIP : Off ]

cron