img image001 image001 image001 image001 image001 image001 image001 image001 image001 image001 image001 image001 image001 image001 image001

Planets Sun Sun Sun
Статистика раздачи
Автор: Снежана | Размер: 4.37 ГБ | Добавлен: 24 июл 2013
Раздают: 250    Качают: 10
Скачать торрент
Скачать торрент
Описание торрента

СообщениеДобавлено: 24 июл 2013 

#77

Информация о фильме
Название: Generation П
Год выхода: 2011
Жанр: фантастика, драма, комедия
Режиссер: Виктор Гинзбург
В ролях: Владимир Епифанцев, Михаил Ефремов, Андрей Фомин, Сергей Шнуров, Андрей Панин, Александр Гордон, Рената Литвинова, Владимир Меньшов, Олег Тактаров, Юрий Сафаров

О фильме: Основанный на культовом романе Виктора Пелевина фильм «Generation П» во многом строится на галлюцинациях — включая речь Че Гевары о том, почему и как телевидение разрушает человека. Однако через изменённую реальность проступает кропотливо восстановленная атмосфера Москвы в 90-е годы, на фоне которой и разворачивается действие картины. Вавилен Татарский, нашедший себя в новой жизни в роли сотрудника рекламного агентства, занимается продвижением западных брендов, адаптируя их под «русскую ментальность». Умный и местами чудовищно смешной, насыщенный спецэффектами и откровениями фильм делает простой и понятной сложную историю о том, как бывшие пионеры стали рекламщиками на службе у богини Иштар, а «поколение Пепси» выбрало Coca-Cola.


Выпущено: Каропрокат
Продолжительность: 01:56:21
Перевод: оригинал

Файл
Кодек: x264
Качество: BDRip (источник: Blu-ray Disc)
Видео: 1920x816 (2,35:1), 23.976 fps, 4933 kbps
Звук: 48 kHz, AC-3, 6 ch, 448 kbps
Скачать: сэмпл

Скриншоты

Общее
Уникальный идентификатор : 246282165648673959669850733943853707012 (0xB9483842226C5B3BAA01A6FBE4786F04)
Полное имя : Generation.P.2011.BDRip.1080p.Rus.mkv
Формат : Matroska
Версия формата : Version 2
Размер файла : 4,37 Гбайт
Продолжительность : 1 ч. 56 м.
Общий поток : 5381 Кбит/сек
Дата кодирования : UTC 2011-09-04 09:44:33
Программа кодирования : mkvmerge v4.0.0 ('The Stars were mine') сборка от Jun 6 2010 16:18:42
Библиотека кодирования : libebml v1.0.0 + libmatroska v1.0.0

Видео
Идентификатор : 1
Формат : AVC
Формат/Информация : Advanced Video Codec
Профиль формата : High@L4.1
Параметр CABAC формата : Да
Параметр ReFrames формата : 5 кадров
Идентификатор кодека : V_MPEG4/ISO/AVC
Продолжительность : 1 ч. 56 м.
Битрейт : 4933 Кбит/сек
Ширина : 1920 пикселей
Высота : 816 пикселей
Соотношение сторон : 2,35:1
Частота кадров : 23,976 кадра/сек
Цветовое пространство : YUV
Субдискретизация насыщенности : 4:2:0
Битовая глубина : 8 бит
Тип развёртки : Прогрессивная
Бит/(Пиксели*Кадры) : 0.131
Размер потока : 3,92 Гбайт (90%)
Библиотека кодирования : x264 core 116 r2074 2641b9e
Настройки программы : cabac=1 / ref=5 / deblock=1:0:0 / analyse=0x3:0x133 / me=umh / subme=10 / psy=1 / psy_rd=1.00:0.10 / mixed_ref=1 / me_range=32 / chroma_me=1 / trellis=2 / 8x8dct=1 / cqm=0 / deadzone=21,11 / fast_pskip=0 / chroma_qp_offset=-3 / threads=12 / sliced_threads=0 / nr=0 / decimate=1 / interlaced=0 / bluray_compat=0 / constrained_intra=0 / bframes=5 / b_pyramid=2 / b_adapt=2 / b_bias=0 / direct=3 / weightb=1 / open_gop=0 / weightp=2 / keyint=250 / keyint_min=23 / scenecut=40 / intra_refresh=0 / rc_lookahead=60 / rc=2pass / mbtree=1 / bitrate=4933 / ratetol=1.0 / qcomp=0.60 / qpmin=0 / qpmax=69 / qpstep=4 / cplxblur=20.0 / qblur=0.5 / ip_ratio=1.40 / aq=1:1.00
Язык : Russian

Аудио
Идентификатор : 2
Формат : AC-3
Формат/Информация : Audio Coding 3
Расширение режима : CM (complete main)
Идентификатор кодека : A_AC3
Продолжительность : 1 ч. 56 м.
Вид битрейта : Постоянный
Битрейт : 448 Кбит/сек
Каналы : 6 каналов
Расположение каналов : Front: L C R, Side: L R, LFE
Частота : 48,0 КГц
Битовая глубина : 16 бит
Метод сжатия : С потерями
Размер потока : 373 Мбайт (8%)
Язык : Russian

Меню
00:00:00.000 : :Chapter 01
00:10:00.891 : :Chapter 02
00:14:24.321 : :Chapter 03
00:18:22.101 : :Chapter 04
00:24:19.082 : :Chapter 05
00:29:10.331 : :Chapter 06
00:31:16.583 : :Chapter 07
00:36:56.589 : :Chapter 08
00:42:46.605 : :Chapter 09
00:51:45.227 : :Chapter 10
00:56:35.225 : :Chapter 11
00:57:54.179 : :Chapter 12
01:10:47.368 : :Chapter 13
01:16:12.526 : :Chapter 14
01:27:10.934 : :Chapter 15
01:35:31.809 : :Chapter 16
01:45:38.040 : :Chapter 17
01:49:55.922 : :Chapter 18
01:56:20.306 : :Chapter 19



   Похожие торренты   Торрент   Размер 
В этой теме нет новых непрочитанных сообщений. Generation П (2011) BDRip 1080p от 3HRZer0

24 | 4

10.73 ГБ

В этой теме нет новых непрочитанных сообщений. Generation П (2011) HD 1080p | Трейлер

0 | 2

169.29 МБ

В этой теме нет новых непрочитанных сообщений. Generation П (2011) BDRip от HQCLUB

49 | 4

2.18 ГБ

В этой теме нет новых непрочитанных сообщений. Generation П (2011) BDRip от HELLYWOOD

10 | 2

2.18 ГБ

В этой теме нет новых непрочитанных сообщений. Generation П (2011) BDRip-AVC от HQ-ViDEO

396 | 30

2.18 ГБ

В этой теме нет новых непрочитанных сообщений. Generation П (2011) BDRip 720p | Лицензия

142 | 2

5.85 ГБ

В этой теме нет новых непрочитанных сообщений. Концерт Girls’ Generation Tour / Girls’ Generation Tour (2011) DVDRip

107 | 30

2.77 ГБ




Вы не можете начинать темы
Вы не можете отвечать на сообщения
Вы не можете редактировать свои сообщения
Вы не можете удалять свои сообщения
Вы не можете добавлять вложения

Перейти:  
Для Мосгорсуда, Роскомнадзора и рекламодателей: mosgorsud-torrent[собачка]yandex.ru
 Вход
ppkBB3cker v.2 © 2008-2014 @ PPK
[ Time : 0.046s | 16 Queries | GZIP : Off ]

Торрент трекер RUTOR.IN, Не можете зайти на rutor.org? Какой новый адрес рутор? Какое зеркало рутор? Не работает rutor.org и зеркала? Тогда наш торрент специально для вас. Rutor.in неофициальное зеркало rutor. В случае если у Вас заблокирован rutor или вдруг Вы не можете на него зайти, то Вы без труда сможете скачать бесплатно и без рекламы последние новинки кино, игр, сериалов и прочего у нас, на Rutor.in. Не нужно использовать прокси, чтобы зайти на рутор, достаточно воспользоваться нашим ресурсом. Все новые фильмы, игры, сериалы, книги и музыка за 2013 и 2014 годы через торрент бесплатно. Скачивайте фильмы в хорошем качестве, игры для пк, xbox, playstation без регистрации. У нас вы найдете новые Зарубежные сериалы и Русские сериалы 2013, 2014, 2015 годов. Оставайтесь с нами, качайте любимые фильмы, игры, сериалы, книги и музыку.
cron