img image001 image001 image001 image001 image001 image001 image001 image001 image001 image001 image001 image001 image001 image001 image001

Planets Sun Sun Sun
Статистика раздачи
Автор: Снежана | Размер: 746 МБ | Добавлен: 24 июл 2013
Раздают: 8    Качают: 3
Скачать торрент
Скачать торрент
Описание торрента

СообщениеДобавлено: 24 июл 2013 

#77

Информация о фильме
Название: Граффити
Год выхода: 2006
Жанр: драма, комедия
Режиссер: Игорь Апасян
В ролях: Андрей Новиков, Александр Ильин, Лариса Гузеева, Виктор Перевалов, Иван Николаев, Ольга Юрасова, Александр Кащеев, Александр Соловьев, Клаудиа Бочар, Степан Рожнов

О фильме:
Художник-дипломник ловит кайф, расписывая в стиле граффити стенки столичной подземки. Но у улицы свои законы, надо знать территорию. В разборке с местными байкерами Андрей получает подбитый глаз, подвернутую ногу и лишается поездки в Италию с выпускным курсом и любимой девушкой. Вместо Венеции Андрея отправляют писать родные просторы в провинцию. Но и здесь он не может обойтись без приключений, только они уже совсем другие…

Страна: Россия
Продолжительность: 02:00:58
Перевод: Не требуется

Файл
Кодек: XviD / MP3
Качество: DVDRip
Видео: XviD, 640x352 (16:9), 25.000 fps, 727 Kbps (0.129 bit/pixel)
Звук: MP3, 48.0 KHz, 2 ch, 128 Kbps, CBR (Russian)

General
Complete name : E:Граффити_[Rutor.org].avi
Format : AVI
Format/Info : Audio Video Interleave
File size : 746 MiB
Duration : 2h 0mn
Overall bit rate : 862 Kbps
Writing application : VirtualDubMod 1.5.4.1 (build 2178/release)
Writing library : VirtualDubMod build 2178/release

Video
ID : 0
Format : MPEG-4 Visual
Format profile : Advanced Simple@L5
Format settings, BVOP : 1
Format settings, QPel : No
Format settings, GMC : No warppoints
Format settings, Matrix : Custom
Codec ID : XVID
Codec ID/Hint : XviD
Duration : 2h 0mn
Bit rate : 727 Kbps
Width : 640 pixels
Height : 352 pixels
Display aspect ratio : 16:9
Frame rate : 25.000 fps
Color space : YUV
Chroma subsampling : 4:2:0
Bit depth : 8 bits
Scan type : Progressive
Compression mode : Lossy
Bits/(Pixel*Frame) : 0.129
Stream size : 629 MiB (84%)
Writing library : XviD 64

Audio
ID : 1
Format : MPEG Audio
Format version : Version 1
Format profile : Layer 3
Mode : Joint stereo
Mode extension : MS Stereo
Codec ID : 55
Codec ID/Hint : MP3
Duration : 2h 0mn
Bit rate mode : Constant
Bit rate : 128 Kbps
Channel(s) : 2 channels
Sampling rate : 48.0 KHz
Compression mode : Lossy
Stream size : 111 MiB (15%)
Alignment : Aligned on interleaves
Interleave, duration : 80 ms (2.00 video frames)
Interleave, preload duration : 504 ms
Writing library : LAME3.98r
Encoding settings : -m j -V 4 -q 2 -lowpass 17 -b 128
Language : Russian




   Похожие торренты   Торрент   Размер 
В этой теме нет новых непрочитанных сообщений. Граффити (2006) DVDRip от Киномагия

44 | 3

1.46 ГБ

В этой теме нет новых непрочитанных сообщений. Бодиарт-граффити и граффити-графика [1680x1050 - 6000x3000] [631шт.] (2012) JPG

1 | 22

549.94 МБ

В этой теме нет новых непрочитанных сообщений. Граффити (2005) DVDRip от Scarabey

49 | 17

798.23 МБ

В этой теме нет новых непрочитанных сообщений. Граффити / Gympl (2007) DVDRip-AVC | L1

15 | 1

1.44 ГБ

В этой теме нет новых непрочитанных сообщений. Граффити / Gympl (2007) DVDRip | L1

119 | 6

1.46 ГБ

В этой теме нет новых непрочитанных сообщений. Граффити (2005) DVDRip от Scarabey

158 | 16

1.45 ГБ

В этой теме нет новых непрочитанных сообщений. Американские Граффити / American Graffiti (1973) DVDRip-AVC

2 | 1

1.83 ГБ




Вы не можете начинать темы
Вы не можете отвечать на сообщения
Вы не можете редактировать свои сообщения
Вы не можете удалять свои сообщения
Вы не можете добавлять вложения

Перейти:  
Для Мосгорсуда, Роскомнадзора и рекламодателей: mosgorsud-torrent[собачка]yandex.ru
 Вход
ppkBB3cker v.2 © 2008-2014 @ PPK
[ Time : 0.102s | 16 Queries | GZIP : Off ]

Торрент трекер RUTOR.IN, Не можете зайти на rutor.org? Какой новый адрес рутор? Какое зеркало рутор? Не работает rutor.org и зеркала? Тогда наш торрент специально для вас. Rutor.in неофициальное зеркало rutor. В случае если у Вас заблокирован rutor или вдруг Вы не можете на него зайти, то Вы без труда сможете скачать бесплатно и без рекламы последние новинки кино, игр, сериалов и прочего у нас, на Rutor.in. Не нужно использовать прокси, чтобы зайти на рутор, достаточно воспользоваться нашим ресурсом. Все новые фильмы, игры, сериалы, книги и музыка за 2013 и 2014 годы через торрент бесплатно. Скачивайте фильмы в хорошем качестве, игры для пк, xbox, playstation без регистрации. У нас вы найдете новые Зарубежные сериалы и Русские сериалы 2013, 2014, 2015 годов. Оставайтесь с нами, качайте любимые фильмы, игры, сериалы, книги и музыку.