img image001 image001 image001 image001 image001 image001 image001 image001 image001 image001 image001 image001 image001 image001 image001

Planets Sun Sun Sun
Статистика раздачи
Автор: Снежана | Размер: 2.06 ГБ | Добавлен: 24 июл 2013
Раздают: 289    Качают: 11
Скачать торрент
Скачать торрент
Описание торрента

СообщениеДобавлено: 24 июл 2013 

#77


Название: Москва слезам не верит
Год выпуска: 1979
Жанр: Драма, мелодрама, комедия
Режиссер: Владимир Меньшов
В ролях: Вера Алентова, Ирина Муравьева, Алексей Баталов, Раиса Рязанова, Александр Фатюшин, Борис Сморчков, Виктор Уральский, Валентина Ушакова, Юрий Васильев, Евгения Ханаева, Зоя Федорова, Наталья Вавилова, Лия Ахеджакова, Олег Табаков, Владимир Басов, Владислав Матвеев, Владимир Гусев, Муза Крепкогорская, Татьяна Конюхова, Иннокентий Смоктуновский ...

О фильме: Москва пятидесятых годов. Три молодые провинциалки приезжают в Москву в поисках того, что ищут люди во всех столицах мира — любви, счастья и достатка. Их судьбы складываются именно так, как предполагает характер каждой из девушек. Антонина выходит замуж, растит детей, любит мужа. Людмиле Москва представляется лотереей, в которой она должна выиграть свое особенное счастье. Катерина же — отчаянно влюбляется, но избранник ее оставляет. Однако она не опускает руки, в одиночку растит дочь и к тому же успевает сделать блестящую карьеру. В сорок лет судьба дарит ей встречу с прекрасным человеком и настоящую любовь…



Выпущено: CCCP / "Мосфильм"
Продолжительность: 02:22:09
Язык: Русский


Кодек: H264/High@L4.1
Качество видео: DVDRip-AVC
Формат: MPEG-4
Видео: 720x544, 4:3, 25 fps, ~1907 kbps avg, 0.19 bit/pixel
Аудио: AAC-LC, 48 kHz, 2 ch







Формат : MPEG-4
Профиль формата : Base Media
Идентификатор кодека : isom
Размер файла : 2,06 Гбайт
Продолжительность : 2 ч. 22 м.
Общий поток : 2074 Кбит/сек
Программа кодирования : Lavf53.6.0

Видео
Идентификатор : 1
Формат : AVC
Формат/Информация : Advanced Video Codec
Профиль формата : High@L4.1
Параметр CABAC формата : Да
Параметр ReFrames формата : 8 кадров
Идентификатор кодека : avc1
Идентификатор кодека/Информация : Advanced Video Coding
Продолжительность : 2 ч. 22 м.
Битрейт : 1907 Кбит/сек
Ширина : 720 пикселей
Высота : 544 пикселя
Соотношение сторон : 4:3
Режим частоты кадров : Постоянный
Частота кадров : 25,000 кадров/сек
Цветовое пространство : YUV
Субдискретизация насыщенности : 4:2:0
Битовая глубина : 8 бит
Тип развёртки : Прогрессивная
Бит/(Пиксели*Кадры) : 0.195
Размер потока : 1,89 Гбайт (92%)
Библиотека кодирования : x264 core 116 r2019 9cc407d
Настройки программы : cabac=1 / ref=8 / deblock=1:0:0 / analyse=0x3:0x133 / me=umh / subme=7 / psy=1 / psy_rd=1.00:0.00 / mixed_ref=1 / me_range=16 / chroma_me=1 / trellis=2 / 8x8dct=1 / cqm=0 / deadzone=21,11 / fast_pskip=0 / chroma_qp_offset=-2 / threads=3 / sliced_threads=0 / nr=0 / decimate=0 / interlaced=0 / bluray_compat=0 / constrained_intra=0 / bframes=3 / b_pyramid=2 / b_adapt=2 / b_bias=0 / direct=3 / weightb=1 / open_gop=0 / weightp=2 / keyint=250 / keyint_min=25 / scenecut=40 / intra_refresh=0 / rc_lookahead=50 / rc=2pass / mbtree=1 / bitrate=1907 / ratetol=1.0 / qcomp=0.80 / qpmin=0 / qpmax=69 / qpstep=4 / cplxblur=20.0 / qblur=0.5 / ip_ratio=1.40 / aq=1:1.00

Аудио
Идентификатор : 2
Формат : AAC
Формат/Информация : Advanced Audio Codec
Профиль формата : LC
Идентификатор кодека : 40
Продолжительность : 2 ч. 22 м.
Вид битрейта : Постоянный
Битрейт : 163 Кбит/сек
Каналы : 2 канала
Расположение каналов : Front: L R
Частота : 48,0 КГц
Метод сжатия : С потерями
Размер потока : 166 Мбайт (8%)



   Похожие торренты   Торрент   Размер 
В этой теме нет новых непрочитанных сообщений. Москва слезам не верит (1979) DVDRip

4081 | 157

1.46 ГБ

В этой теме нет новых непрочитанных сообщений. Москва слезам не верит (1979) HDRip от Youtracker

1986 | 87

1.45 ГБ

В этой теме нет новых непрочитанных сообщений. Москва слезам не верит (1979) DVD5 R5 от Youtracker

327 | 9

4.32 ГБ

В этой теме нет новых непрочитанных сообщений. Москва слезам не верит (1979) BDRip-AVC от Youtracker

225 | 15

2.18 ГБ

В этой теме нет новых непрочитанных сообщений. Москва слезам не верит (1979) BDRip от HELLYWOOD

95 | 21

2.9 ГБ

В этой теме нет новых непрочитанных сообщений. Москва слезам не верит (1979) BDRip от HQCLUB

1814 | 63

2.18 ГБ

В этой теме нет новых непрочитанных сообщений. Москва слезам не верит (1979) Blu-ray 1080p от HDclub

191 | 255

32.55 ГБ




Вы не можете начинать темы
Вы не можете отвечать на сообщения
Вы не можете редактировать свои сообщения
Вы не можете удалять свои сообщения
Вы не можете добавлять вложения

Перейти:  
Для Мосгорсуда, Роскомнадзора и рекламодателей: mosgorsud-torrent[собачка]yandex.ru
 Вход
ppkBB3cker v.2 © 2008-2014 @ PPK
[ Time : 1.767s | 15 Queries | GZIP : Off ]

Торрент трекер RUTOR.IN, Не можете зайти на rutor.org? Какой новый адрес рутор? Какое зеркало рутор? Не работает rutor.org и зеркала? Тогда наш торрент специально для вас. Rutor.in неофициальное зеркало rutor. В случае если у Вас заблокирован rutor или вдруг Вы не можете на него зайти, то Вы без труда сможете скачать бесплатно и без рекламы последние новинки кино, игр, сериалов и прочего у нас, на Rutor.in. Не нужно использовать прокси, чтобы зайти на рутор, достаточно воспользоваться нашим ресурсом. Все новые фильмы, игры, сериалы, книги и музыка за 2013 и 2014 годы через торрент бесплатно. Скачивайте фильмы в хорошем качестве, игры для пк, xbox, playstation без регистрации. У нас вы найдете новые Зарубежные сериалы и Русские сериалы 2013, 2014, 2015 годов. Оставайтесь с нами, качайте любимые фильмы, игры, сериалы, книги и музыку.
cron